\m/ 80's metal \m/

Информационно-аналитический форум "80 см пыли" (In Search We Trust) "У нас никто никуда не спешит"
Me For You - http://me-4u.com
It is currently 21 Nov 2018

All times are UTC + 3 hours

Spoiler
Chat - temporary registration for foreign users (please leave your application here)







Post new topic Reply to topic  [ 5 posts ] 
Author Message
 
PostPosted: 25 Oct 2010 
ыыыы
User avatar
Joined: 17 May 2009
Posts: 952
Lоcаtion: Пушкино, МО
Age: 40
Name: Дмитрий
Image


Жанр: Hard Rock
Происхождение исполнителя: США
Год издания: 1993
Год издания данного носителя: 1994
Страна-производитель носителя: Япония
Аудио кодек: FLAC
Тип рипа: image+.cue
Битрейт аудио: lossless
Продолжительность: 54:44
Рип: Собственный
Лейбл: SHRAPNEL/APOLLON
Каталоговый номер: APCY-8159
Матрица: APCY-8159- 1P 11 V (JVC)

Треклист:
1. Love Has No Color 06:20
2. Stone Cold Believer 05:25
3. Change the World 04:55
4. Can't Slow Down 04:14
5. New Sensation 06:18
6. World Spinnin' Round 05:02
7. Believe in Yourself 02:55
8. Heaven is Waiting 03:47
9. I Miss You Mama 04:53
10. Spread Your Wings 04:52
11. We All Need Someone to Love 06:04

"Куй"
REM GENRE "Hard Rock"
REM DATE 1993
REM DISCID 7E0CD40B
REM COMMENT "ExactAudioCopy v0.99pb5"
PERFORMER "War & Peace"
TITLE "Time Capsule [APCY-8159]"
FILE "War & Peace - Time Capsule [APCY-8159].flac" WAVE
TRACK 01 AUDIO
TITLE "Love Has No Color"
PERFORMER "War & Peace"
INDEX 00 00:00:00
INDEX 01 00:00:37
TRACK 02 AUDIO
TITLE "Stone Cold Believer"
PERFORMER "War & Peace"
INDEX 01 06:20:49
TRACK 03 AUDIO
TITLE "Change The World"
PERFORMER "War & Peace"
INDEX 01 11:45:29
TRACK 04 AUDIO
TITLE "Can't Slow Down"
PERFORMER "War & Peace"
INDEX 01 16:40:37
TRACK 05 AUDIO
TITLE "New Sensation"
PERFORMER "War & Peace"
INDEX 01 20:54:49
TRACK 06 AUDIO
TITLE "World Spinnin' Round"
PERFORMER "War & Peace"
INDEX 01 27:12:19
TRACK 07 AUDIO
TITLE "Believe In Yourself"
PERFORMER "War & Peace"
INDEX 01 32:14:22
TRACK 08 AUDIO
TITLE "Heaven Is Waiting"
PERFORMER "War & Peace"
INDEX 01 35:09:34
TRACK 09 AUDIO
TITLE "I Miss You Mama"
PERFORMER "War & Peace"
INDEX 01 38:56:04
TRACK 10 AUDIO
TITLE "Spread Your Wings"
PERFORMER "War & Peace"
INDEX 01 43:48:72
TRACK 11 AUDIO
TITLE "We All Need Someone To Love"
PERFORMER "War & Peace"
INDEX 01 48:40:47


"Лог"
Exact Audio Copy V0.99 prebeta 5 from 4. May 2009

Отчёт EAC об извлечении, выполненном 25. октября 2010, 11:12

War & Peace / Time Capsule [APCY-8159]

Дисковод: Optiarc DVD RW AD-7200A Adapter: 1 ID: 0

Режим чтения : Достоверность
Использование точного потока : Да
Отключение кэша аудио : Да
Использование указателей C2 : Нет

Коррекция смещения при чтении : 48
Способность читать области Lead-in и Lead-out : Нет
Заполнение пропущенных сэмплов тишиной : Да
Удаление блоков с тишиной в начале и конце : Нет
При вычислениях CRC использовались нулевые сэмплы : Да
Интерфейс : Встроенный Win32-интерфейс для Win NT/2000

Выходной формат : Пользовательский кодировщик
Выбранный битрейт : 128 kBit/s
Качество : Высокий
Добавление ID3-тэга : Нет
Утилита сжатия : C:\Program Files\Exact Audio Copy\Flac\flac.exe
Дополнительные параметры : -8 -V -T "artist=%a" -T "title=%t" -T "album=%g" -T "date=%y" -T "tracknumber=%n" -T "genre=%m" -T "comment=EAC


TOC извлечённого CD

Трек | Старт | Длительность | Начальный сектор | Конечный сектор
---------------------------------------------------------------------
1 | 0:00.37 | 6:20.12 | 37 | 28548
2 | 6:20.49 | 5:24.55 | 28549 | 52903
3 | 11:45.29 | 4:55.08 | 52904 | 75036
4 | 16:40.37 | 4:14.12 | 75037 | 94098
5 | 20:54.49 | 6:17.45 | 94099 | 122418
6 | 27:12.19 | 5:02.03 | 122419 | 145071
7 | 32:14.22 | 2:55.12 | 145072 | 158208
8 | 35:09.34 | 3:46.45 | 158209 | 175203
9 | 38:56.04 | 4:52.68 | 175204 | 197171
10 | 43:48.72 | 4:51.50 | 197172 | 219046
11 | 48:40.47 | 6:04.05 | 219047 | 246351


Характеристики диапазона извлечения и сообщения об ошибках

Выбранный диапазон

Имя файла Y:\Музыка\War & Peace\1993 Time Capsule\War & Peace - Time Capsule [APCY-8159].wav

Пиковый уровень 99.6 %
Качество диапазона 100.0 %
CRC теста E657D0D0
CRC копии E657D0D0
Копирование... OK

Ошибок не произошло


AccurateRip: сводка

Трек 1 нет в базе данных
Трек 2 нет в базе данных
Трек 3 нет в базе данных
Трек 4 нет в базе данных
Трек 5 нет в базе данных
Трек 6 нет в базе данных
Трек 7 нет в базе данных
Трек 8 нет в базе данных
Трек 9 нет в базе данных
Трек 10 нет в базе данных
Трек 11 нет в базе данных

Ни одного трека нет в базе AccurateRip

Конец отчёта


Состав:
Russ Parrish: Lead and rhythm guitars, vocals
Tommy Hendrix: Bass, vocals
Ricky Parent: Drums
Jeff Pilson: Lead vocals, rhythm guitar

APCY-8159

_________________
Витасу до Даймонда как Алсу до Руссоса | При переразмещении - спрашивать разрешение!!


Top
 Profile  
 
 
PostPosted: 25 Oct 2010 
Хиппей (support team)
User avatar
Joined: 30 Jul 2007
Posts: 108231
Lоcаtion: Киев (Kyiv, UA)
Age: 45
Name: Andrey
:thanx:

_________________


Top
 Profile E-mail  
 
 
PostPosted: 25 Oct 2010 
дядя Миша
User avatar
Joined: 17 Oct 2008
Posts: 3074
Lоcаtion: USSR
Age: 56
Name: Khy
Спасибо! Не слышал! Охереть!


Top
 Profile  
 
 
PostPosted: 25 Oct 2010 
Пионэръ
User avatar
Joined: 02 Jul 2010
Posts: 45
Lоcаtion: Сочи
Age: 46
Name: Борис
Отличный диск :losik:
Не знаю правда кто это такие, но мне понравилось :dance:
Спасибо !!!


Top
 Profile E-mail  
 
 
PostPosted: 25 Oct 2010 
Персональный статус
Joined: 14 May 2010
Posts: 236
Age: 37
Name: Денис
tool9 wrote:
Отличный диск :losik:
Не знаю правда кто это такие, но мне понравилось :dance:
Спасибо !!!

Вот, наиболее точное описание ощущений, после прослушивания этого коллектива. :true: +1


Top
 Profile  
 
Display posts from previous:  Sort by  
Post new topic Reply to topic  [ 5 posts ] 

All times are UTC + 3 hours


Who is online

Users browsing this forum: No registered users and 5 guests


You cannot post new topics in this forum
You cannot reply to topics in this forum
You cannot edit your posts in this forum
You cannot delete your posts in this forum
You cannot post attachments in this forum

Search for:
Яндекс.Метрика
Powered by phpBB © 2000, 2002, 2005, 2007 phpBB Group