\m/ 80's metal \m/

Информационно-аналитический форум "80 см пыли" (In Search We Trust) "У нас никто никуда не спешит"
Me For You - http://me-4u.com
It is currently 19 Nov 2018

All times are UTC + 3 hours

Spoiler
Chat - temporary registration for foreign users (please leave your application here)







Post new topic Reply to topic  [ 9 posts ] 
Author Message
 
PostPosted: 30 Sep 2010 
адын фелософъ прокметолу
User avatar
Joined: 22 Oct 2009
Posts: 2709
Lоcаtion: Сочи
Age: 41
Name: Сергей
Image
Группа: Warlord
Альбом: Deliever Us (EP)
Жанр: Heavy/Power Metal
Год издания: 1983
Год издания данного носителя: 2003
Страна-производитель носителя: Germany
Аудио кодек: FLAC
Тип рипа: Image+Cue+Log
Битрейт Аудио: Loseless
Продолжительность: 34:12
Рип: Собственный
Лейбл: Drakkar Records
Каталоговый Номер: 82876 52297 9/ Drakkar 051
Матрица: Optiarc DVD RW AD-7241S ???

Трэклист:
1. Deliver Us From Evil 06:08
2. Winter Tears 04:46
3. Child of the Damned 04:04
4. Penny For a Poor Man 03:54
5. Black Mass 05:34
6. Lucifer's Hammer 03:50
7. Mrs. Victoria 5.56

"cue"
REM GENRE Metal
REM DATE 1983
REM DISCID 5D080307
REM COMMENT "ExactAudioCopy v0.95b4"
PERFORMER "Warlord"
TITLE "Deliever Us"
FILE "Warlord - Deliever Us.wav" WAVE
TRACK 01 AUDIO
TITLE "Deliever Us From Evil"
PERFORMER "Warlord"
INDEX 01 00:00:00
TRACK 02 AUDIO
TITLE "Winter Tears"
PERFORMER "Warlord"
INDEX 00 06:07:31
INDEX 01 06:08:01
TRACK 03 AUDIO
TITLE "Child Of The Damned"
PERFORMER "Warlord"
INDEX 00 10:52:71
INDEX 01 10:54:41
TRACK 04 AUDIO
TITLE "Penny For A Poor Man"
PERFORMER "Warlord"
INDEX 00 14:57:29
INDEX 01 14:58:74
TRACK 05 AUDIO
TITLE "Black Mass"
PERFORMER "Warlord"
INDEX 01 18:53:52
TRACK 06 AUDIO
TITLE "Lucifer's Hammer"
PERFORMER "Warlord"
INDEX 00 24:26:19
INDEX 01 24:27:64
TRACK 07 AUDIO
TITLE "Mrs.Victoria"
PERFORMER "Warlord"
INDEX 00 28:16:02
INDEX 01 28:17:47


"log"
Отчёт EAC об извлечении, выполненном 27. сентября 2010, 19:52 для диска:
Warlord / Deliever Us

Дисковод: Optiarc DVD RW AD-7241S Adapter: 1 ID: 0
Режим чтения: Достоверный (C2: нет, Точный поток: да, Отключение кэша: да)
Коррекция смещения при чтении: 48
Способность читать области Lead-in и Lead-out : Нет

Выходной формат: Внутренние WAV-операции
44.100 Гц; 16 бит; стерео

Другие параметры:
Заполнение пропущенных сэмплов тишиной : Да
Удаление блоков с тишиной в начале и конце : Нет
Установленный внешний ASPI-интерфейс


Характеристики диапазона извлечения и сообщения об ошибках
Выбранный диапазон
Имя файла C:\Users\Сергей\Music\Loseless\Warlord 1983\Warlord - Deliever Us.wav

Пиковый уровень 98.8 %
Качество диапазона 100.0 %
CRC A13E9D6E
Копирование... OK

Ошибок не произошло

Конец отчёта


Состав:
Vocals : Damien King (Jack Rucker)
Guitars : Destroyer (Bill Tsamis)
Bass : The Raven (Dave Watry)
Drums : Thunderchild (Mark Zonder)
Keyboards : Sentinel (Dianne Arens)

залито на мегу

Данная епешка является бонусом СД к единственному концерту группы снятому на видео, оцифрованному через много лет и выпущенному на ДВД. Пока, что весь концерт у меня нет возможности залить, проще сделать копию и передать при встрече.
А пока залил бонус диск

_________________
А теперь ... клоунов и стриптизёрш!


Top
 Profile E-mail  
 
 
PostPosted: 30 Sep 2010 
Хиппей (support team)
User avatar
Joined: 30 Jul 2007
Posts: 108153
Lоcаtion: Киев (Kyiv, UA)
Age: 45
Name: Andrey
:thanx:

_________________


Top
 Profile E-mail  
 
 
PostPosted: 01 Oct 2010 
Alive Again
User avatar
Joined: 17 Dec 2008
Posts: 4740
Lоcаtion: Курск Воронеж Оскол
Age: 44
Name: Дмитрий
не знал о таких, :thanx:


Top
 Profile E-mail  
 
 
PostPosted: 01 Oct 2010 
А может смените мне статус?..
User avatar
Joined: 24 Dec 2008
Posts: 621
Age: 44
Name: Дмитрий
Спасибо.


Top
 Profile  
 
 
PostPosted: 02 Oct 2010 
Работнечег
User avatar
Joined: 28 Aug 2007
Posts: 5528
Lоcаtion: г. Москва
Age: 29
Name: Дима
Пасибки, хорошая группа!


Top
 Profile E-mail  
 
 
PostPosted: 10 Mar 2016 
Доктор энтомологии
User avatar
Joined: 22 Jan 2009
Posts: 9449
Lоcаtion: Даугавпилс
Age: 43
Name: Алексей
Новый альбомчик хорош :lob:


Top
 Profile  
 
 
PostPosted: 10 Mar 2016 
Прокъмитолист
User avatar
Joined: 12 Aug 2007
Posts: 6504
Lоcаtion: Санктъ-Петербуркъ
Age: 51
Name: Олекъ
Зондер красава :lob:

_________________
прокъметол - это музыко, от которово есть прок (ы)


Top
 Profile  
 
 
PostPosted: 10 Mar 2016 
Доктор энтомологии
User avatar
Joined: 22 Jan 2009
Posts: 9449
Lоcаtion: Даугавпилс
Age: 43
Name: Алексей
ага, вообще молодец :lob:


Top
 Profile  
 
 
PostPosted: 10 Mar 2016 
Анатолий
User avatar
Joined: 18 Oct 2008
Posts: 3174
Lоcаtion: Армавир
Age: 41
Name: Анатолий
Вот черти... с пол оборота заводит их музыка... очень проникновенно и душевно!


Top
 Profile E-mail  
 
Display posts from previous:  Sort by  
Post new topic Reply to topic  [ 9 posts ] 

All times are UTC + 3 hours


Who is online

Users browsing this forum: No registered users and 3 guests


You cannot post new topics in this forum
You cannot reply to topics in this forum
You cannot edit your posts in this forum
You cannot delete your posts in this forum
You cannot post attachments in this forum

Search for:
Яндекс.Метрика
Powered by phpBB © 2000, 2002, 2005, 2007 phpBB Group