\m/ 80's metal \m/

Информационно-аналитический форум "80 см пыли" (In Search We Trust) "У нас никто никуда не спешит"
Me For You - http://me-4u.com
It is currently 16 Oct 2018

All times are UTC + 3 hours

Spoiler
Chat - temporary registration for foreign users (please leave your application here)







Post new topic Reply to topic  [ 4 posts ] 
Author Message
 
PostPosted: 12 Jul 2010 
ыыыы
User avatar
Joined: 17 May 2009
Posts: 952
Lоcаtion: Пушкино, МО
Age: 40
Name: Дмитрий
Image


Жанр: Hard Rock
Происхождение исполнителя: Англия/США
Год издания: 1978
Год издания данного носителя: 1987
Страна-производитель носителя: Япония
Аудио кодек: FLAC
Тип рипа: image+.cue
Битрейт аудио: lossless
Продолжительность: 38:22
Рип: Собственный
Лейбл: SUNBURST/POLYDOR K.K.
Каталоговый номер: P33P-25058
Матрица: P33P-25058 MT 1B1 +++ (DENON)

Треклист:
1. Take Me With You 04:46
2. Love to Keep You Warm 03:45
3. Lie Down (A Modern Love Song) 03:14
4. Day Tripper (The Beatles cover) 03:47
5. Nighthawk 03:40
6. The Time Is Right for Love 03:27
7. Trouble 04:49
8. Belgian Tom's Hat Trick 03:27
9. Free Flight 4:08
10. Don't Mess With Me 03:19

"Куй"
REM GENRE "Hard Rock"
REM DATE 1978
REM DISCID 7B08FE0A
REM COMMENT "ExactAudioCopy v0.99pb5"
PERFORMER "Whitesnake"
TITLE "Trouble [P33P-25058]"
FILE "Whitesnake - Trouble [P33P-25058].flac" WAVE
TRACK 01 AUDIO
TITLE "Take me with you"
PERFORMER "Whitesnake"
INDEX 01 00:00:00
TRACK 02 AUDIO
TITLE "Love to keep you warm"
PERFORMER "Whitesnake"
INDEX 01 04:46:30
TRACK 03 AUDIO
TITLE "Lie down (a modern love song)"
PERFORMER "Whitesnake"
INDEX 01 08:30:70
TRACK 04 AUDIO
TITLE "Day tripper"
PERFORMER "Whitesnake"
INDEX 01 11:45:05
TRACK 05 AUDIO
TITLE "Night hawk (vampire blues)"
PERFORMER "Whitesnake"
INDEX 01 15:32:30
TRACK 06 AUDIO
TITLE "The time is right for love"
PERFORMER "Whitesnake"
INDEX 00 19:12:20
INDEX 01 19:12:52
TRACK 07 AUDIO
TITLE "Trouble"
PERFORMER "Whitesnake"
INDEX 01 22:40:02
TRACK 08 AUDIO
TITLE "Belgian Tom's hat trick"
PERFORMER "Whitesnake"
INDEX 01 27:29:07
TRACK 09 AUDIO
TITLE "Free flight"
PERFORMER "Whitesnake"
INDEX 01 30:55:52
TRACK 10 AUDIO
TITLE "Don't mess with me"
PERFORMER "Whitesnake"
INDEX 01 35:03:27


"Лог"
Exact Audio Copy V0.99 prebeta 5 from 4. May 2009

Отчёт EAC об извлечении, выполненном 22. марта 2010, 21:57

Whitesnake / Trouble [P33P-25058]

Дисковод: MATSHITADVD-RAM UJ-850S Adapter: 0 ID: 0

Режим чтения : Достоверность
Использование точного потока : Да
Отключение кэша аудио : Да
Использование указателей C2 : Нет

Коррекция смещения при чтении : 102
Способность читать области Lead-in и Lead-out : Нет
Заполнение пропущенных сэмплов тишиной : Да
Удаление блоков с тишиной в начале и конце : Нет
При вычислениях CRC использовались нулевые сэмплы : Нет
Интерфейс : Установленный внешний ASPI-интерфейс

Выходной формат : Пользовательский кодировщик
Выбранный битрейт : 128 kBit/s
Качество : Высокий
Добавление ID3-тэга : Нет
Утилита сжатия : C:\Program Files\Exact Audio Copy\Flac\flac.exe
Дополнительные параметры : -6 -V -T "artist=%a" -T "title=%t" -T "album=%g" -T "date=%y" -T "tracknumber=%n" -T "genre=%m" -T "comment=EAC 0.9beta4 / FLAC 1.1.0 q6" %s


TOC извлечённого CD

Трек | Старт | Длительность | Начальный сектор | Конечный сектор
---------------------------------------------------------------------
1 | 0:00.00 | 4:46.30 | 0 | 21479
2 | 4:46.30 | 3:44.40 | 21480 | 38319
3 | 8:30.70 | 3:14.10 | 38320 | 52879
4 | 11:45.05 | 3:47.25 | 52880 | 69929
5 | 15:32.30 | 3:40.22 | 69930 | 86451
6 | 19:12.52 | 3:27.25 | 86452 | 102001
7 | 22:40.02 | 4:49.05 | 102002 | 123681
8 | 27:29.07 | 3:26.45 | 123682 | 139176
9 | 30:55.52 | 4:07.50 | 139177 | 157751
10 | 35:03.27 | 3:18.73 | 157752 | 172674


Характеристики диапазона извлечения и сообщения об ошибках

Выбранный диапазон

Имя файла Z:\Музыка\Whitesnake\1978 Trouble\Whitesnake - Trouble [P33P-25058].wav

Пиковый уровень 90.9 %
Качество диапазона 100.0 %
CRC копии BF63F423
Копирование... OK

Ошибок не произошло


AccurateRip: сводка

Трек 1 нет в базе данных
Трек 2 нет в базе данных
Трек 3 нет в базе данных
Трек 4 нет в базе данных
Трек 5 нет в базе данных
Трек 6 нет в базе данных
Трек 7 нет в базе данных
Трек 8 нет в базе данных
Трек 9 нет в базе данных
Трек 10 нет в базе данных

Ни одного трека нет в базе AccurateRip

Конец отчёта


Состав:
David Coverdale: Vocals
Micky Moody: Guitar
Bernie Marsden: Guitar
Neil Murray: Bass guitar
Jon Lord: Keyboards
Dave Dowle: Drums

P33P-25058

_________________
Витасу до Даймонда как Алсу до Руссоса | При переразмещении - спрашивать разрешение!!


Top
 Profile  
 
 
PostPosted: 12 Jul 2010 
Персональный статус
Joined: 14 May 2010
Posts: 236
Age: 37
Name: Денис
iezuit
You are the best!

Ненапряжный такой альбом. Очень Purple напоминает, в основном из-за партий Лорда (oх, нравится мне его игра). :nunu:
+ Мартин в продюсерах. ;)

Запись отличная, отчётливо слышны различные инструменты.


Last edited by disabled on 12 Jul 2010, edited 4 times in total.

Top
 Profile  
 
 
PostPosted: 12 Jul 2010 
Пионэръ
Joined: 08 Mar 2010
Posts: 36
Lоcаtion: Россия
Age: 38
Name: Иван
disabled wrote:
iezuit
You are the best!


Причём с Большой буквы!


Top
 Profile E-mail  
 
 
PostPosted: 12 Jul 2010 
Пионэръ
User avatar
Joined: 02 Jul 2010
Posts: 45
Lоcаtion: Сочи
Age: 46
Name: Борис
СПАСИБО :thanx: :thanx:
Добавим в коллекцию японца :meloman:


Top
 Profile E-mail  
 
Display posts from previous:  Sort by  
Post new topic Reply to topic  [ 4 posts ] 

All times are UTC + 3 hours


Who is online

Users browsing this forum: No registered users and 1 guest


You cannot post new topics in this forum
You cannot reply to topics in this forum
You cannot edit your posts in this forum
You cannot delete your posts in this forum
You cannot post attachments in this forum

Search for:
Яндекс.Метрика
Powered by phpBB © 2000, 2002, 2005, 2007 phpBB Group