\m/ 80's metal \m/

Информационно-аналитический форум "80 см пыли" (In Search We Trust) "У нас никто никуда не спешит"
Me For You - http://me-4u.com
It is currently 19 Nov 2018

All times are UTC + 3 hours

Spoiler
Chat - temporary registration for foreign users (please leave your application here)







Post new topic Reply to topic  [ 7 posts ] 
Author Message
 
PostPosted: 09 Jul 2010 
Генеральный thrasher
User avatar
Joined: 03 Oct 2008
Posts: 3506
Lоcаtion: Ханты-Мансийский АО
Age: 43
Name: Сергей
Image

Year:1983 (2009 Re-Issue)
Style:Heavy Metal
Country:France
Audio:Flac+Cue+Log
Size:297Mb
Label:Axe Killer

Image

Line-Up:
Raphaлl Garrido : vocals
Christophe Aubert : lead guitar
Michel Ayme : bass
Didier Bernoussi : guitar
Gerald Manceau : drums

Tracklist:
1. Rock city 04:10
2. Commando 04:11
3. Serie noire 04:41
4. Fire fire 05:33
5. Speed-moi 04:31
6. Bahamas memorial 04:10
7. Strange way of love 03:51
8. Sexy lubie 03:05
9. Planete reverse 03:41

Image

Cue
REM GENRE "Heavy Metal"
REM DATE 1983
REM DISCID 6A094909
REM COMMENT "ExactAudioCopy v0.99pb4"
PERFORMER "Warning"
TITLE "Warning (II)"
FILE "Warning - Warning.flac" WAVE
TRACK 01 AUDIO
TITLE "Rock City"
PERFORMER "Warning"
INDEX 01 00:00:00
TRACK 02 AUDIO
TITLE "Commando"
PERFORMER "Warning"
INDEX 00 04:16:24
INDEX 01 04:18:25
TRACK 03 AUDIO
TITLE "Sйrie noire"
PERFORMER "Warning"
INDEX 00 08:37:42
INDEX 01 08:39:43
TRACK 04 AUDIO
TITLE "Fire Fire"
PERFORMER "Warning"
INDEX 00 13:29:67
INDEX 01 13:31:68
TRACK 05 AUDIO
TITLE "Speed-moi"
PERFORMER "Warning"
INDEX 00 19:19:09
INDEX 01 19:21:10
TRACK 06 AUDIO
TITLE "Bahama's Memorial"
PERFORMER "Warning"
INDEX 00 24:02:73
INDEX 01 24:04:73
TRACK 07 AUDIO
TITLE "Strange Way of Love (Sixty-Nine)"
PERFORMER "Warning"
INDEX 00 28:24:27
INDEX 01 28:26:28
TRACK 08 AUDIO
TITLE "Sexy Lubie"
PERFORMER "Warning"
INDEX 00 32:29:49
INDEX 01 32:31:50
TRACK 09 AUDIO
TITLE "Planиte Reverse"
PERFORMER "Warning"
INDEX 00 35:45:13
INDEX 01 35:47:13


Log
Exact Audio Copy V0.99 prebeta 4 from 23. January 2008

Отчёт EAC об извлечении, выполненном 9. июля 2010, 9:50

Warning / Warning (II)

Дисковод: TSSTcorpCDDVDW SH-S202N Adapter: 0 ID: 1

Режим чтения : Достоверность
Использование точного потока : Да
Отключение кэша аудио : Да
Использование указателей C2 : Нет

Коррекция смещения при чтении : 6
Способность читать области Lead-in и Lead-out : Нет
Заполнение пропущенных сэмплов тишиной : Да
Удаление блоков с тишиной в начале и конце : Нет
При вычислениях CRC использовались нулевые сэмплы : Нет
Интерфейс : Установленный внешний ASPI-интерфейс

Выходной формат : Пользовательский кодировщик
Выбранный битрейт : 768 kBit/s
Качество : Высокий
Добавление ID3-тэга : Нет
Утилита сжатия : C:\Program Files\Exact Audio Copy\FLAC\FLAC.EXE
Дополнительные параметры : -6 -V -T "ARTIST=%a" -T "TITLE=%t" -T "ALBUM=%g" -T "DATE=%y" -T "TRACKNUMBER=%n" -T "GENRE=%m" -T "COMMENT=%e" %s -o %d


TOC извлечённого CD

Трек | Старт | Длительность | Начальный сектор | Конечный сектор
---------------------------------------------------------------------
1 | 0:00.00 | 4:18.25 | 0 | 19374
2 | 4:18.25 | 4:21.18 | 19375 | 38967
3 | 8:39.43 | 4:52.25 | 38968 | 60892
4 | 13:31.68 | 5:49.17 | 60893 | 87084
5 | 19:21.10 | 4:43.63 | 87085 | 108372
6 | 24:04.73 | 4:21.30 | 108373 | 127977
7 | 28:26.28 | 4:05.22 | 127978 | 146374
8 | 32:31.50 | 3:15.38 | 146375 | 161037
9 | 35:47.13 | 3:50.37 | 161038 | 178324


Характеристики диапазона извлечения и сообщения об ошибках

Выбранный диапазон

Имя файла F:\Лоси\W\Warning - Warning.wav

Пиковый уровень 100.0 %
Качество диапазона 100.0 %
CRC копии 861B25F0
Копирование... OK

Ошибок не произошло


AccurateRip: сводка

Трек 1 точность не определена (достоверность 1) [5805CDF8], AccurateRip вернул [97B174D0]
Трек 2 точность не определена (достоверность 1) [E298D719], AccurateRip вернул [ED09CEA1]
Трек 3 точность не определена (достоверность 1) [3CCEA5F5], AccurateRip вернул [8DBDAE7D]
Трек 4 точность не определена (достоверность 1) [87048EA3], AccurateRip вернул [4541B423]
Трек 5 точность не определена (достоверность 1) [830C112B], AccurateRip вернул [E056DF3B]
Трек 6 точность не определена (достоверность 1) [5F5A8B20], AccurateRip вернул [E3E98BF0]
Трек 7 точность не определена (достоверность 1) [A20B6B09], AccurateRip вернул [653A1D31]
Трек 8 точность не определена (достоверность 1) [DA88C6B5], AccurateRip вернул [2810D665]
Трек 9 точность не определена (достоверность 1) [1DD8A00D], AccurateRip вернул [B7E8F0F5]

Ни один трек не прошёл проверки на точность
В вашей базе может быть иной вариант штамповки диска

Конец отчёта


Megaupload


Top
 Profile  
 
 
PostPosted: 09 Jul 2010 
Прокъмитолист
User avatar
Joined: 12 Aug 2007
Posts: 6504
Lоcаtion: Санктъ-Петербуркъ
Age: 51
Name: Олекъ
спасибо II :true: :true:

_________________
прокъметол - это музыко, от которово есть прок (ы)


Top
 Profile  
 
 
PostPosted: 09 Jul 2010 
Генеральный thrasher
User avatar
Joined: 03 Oct 2008
Posts: 3506
Lоcаtion: Ханты-Мансийский АО
Age: 43
Name: Сергей
Слушайте на здоровье! :true:


Top
 Profile  
 
 
PostPosted: 09 Jul 2010 
Хиппей (support team)
User avatar
Joined: 30 Jul 2007
Posts: 108153
Lоcаtion: Киев (Kyiv, UA)
Age: 45
Name: Andrey
:true: :thanx:

_________________


Top
 Profile E-mail  
 
 
PostPosted: 13 Jul 2010 
metallpaparazzy
User avatar
Joined: 20 Dec 2009
Posts: 674
Lоcаtion: Днепропетровск
Age: 43
Name: Геннадий
:thanx: :thanx:
спасибо за оба сразу :smile:
:oops: ...и шо, таки есть надежда шо и за третий можно будит сказать :thanx: ?


Top
 Profile E-mail  
 
 
PostPosted: 14 Jul 2010 
Генеральный thrasher
User avatar
Joined: 03 Oct 2008
Posts: 3506
Lоcаtion: Ханты-Мансийский АО
Age: 43
Name: Сергей
metallroll wrote:
:thanx: :thanx:
спасибо за оба сразу :smile:
:oops: ...и шо, таки есть надежда шо и за третий можно будит сказать :thanx: ?


Вряд ли Ген...Третий нигде не встречал.


Top
 Profile  
 
 
PostPosted: 12 Oct 2010 
Работнечег
User avatar
Joined: 28 Aug 2007
Posts: 5528
Lоcаtion: г. Москва
Age: 29
Name: Дима
Спасибо Серёг, за оба альбома! :true:


Top
 Profile E-mail  
 
Display posts from previous:  Sort by  
Post new topic Reply to topic  [ 7 posts ] 

All times are UTC + 3 hours


Who is online

Users browsing this forum: No registered users and 1 guest


You cannot post new topics in this forum
You cannot reply to topics in this forum
You cannot edit your posts in this forum
You cannot delete your posts in this forum
You cannot post attachments in this forum

Search for:
Яндекс.Метрика
Powered by phpBB © 2000, 2002, 2005, 2007 phpBB Group