\m/ 80's metal \m/

Информационно-аналитический форум "80 см пыли" (In Search We Trust) "У нас никто никуда не спешит"
Me For You - http://me-4u.com
It is currently 14 Dec 2018

All times are UTC + 3 hours

Spoiler
Chat - temporary registration for foreign users (please leave your application here)







Post new topic Reply to topic  [ 5 posts ] 
Author Message
 
PostPosted: 09 Jul 2010 
Генеральный thrasher
User avatar
Joined: 03 Oct 2008
Posts: 3536
Lоcаtion: Ханты-Мансийский АО
Age: 43
Name: Сергей
Image

Year:1981 (2009 Re-Issue)
Style:Heavy Metal
Country:France
Audio:Flac+Cue+Log
Size:258Mb
Label:Axe Killer

Image

Line-Up:
Raphael Garrido - Vocals
Christophe Aubert - Guitar
Didier Bernoussi - Guitar
Alain Pernette - Bass
Henry Barbut - Drums

Tracklist:
1. Going to USA 05:05
2. Cine regard 04:45
3. Le casse 04:33
4. Sous le soleil de Mescaline 03:42
5. New look 04:10
6. Tel que tu l'imaginais 05:37
7. Satan relaps 03:45
8. Alice in Yonderland 03:59

Image

Cue
REM GENRE "Heavy Metal"
REM DATE 1981
REM DISCID 71086D08
REM COMMENT "ExactAudioCopy v0.99pb4"
PERFORMER "Warning"
TITLE "Warning"
FILE "Warning - same.flac" WAVE
TRACK 01 AUDIO
TITLE "Going To U.S.A."
PERFORMER "Warning"
INDEX 00 00:00:00
INDEX 01 00:00:32
TRACK 02 AUDIO
TITLE "Cine Regard"
PERFORMER "Warning"
INDEX 00 05:07:27
INDEX 01 05:09:40
TRACK 03 AUDIO
TITLE "Le Casse"
PERFORMER "Warning"
INDEX 00 09:55:65
INDEX 01 09:57:50
TRACK 04 AUDIO
TITLE "Sous Le Soleil De Mescaline"
PERFORMER "Warning"
INDEX 00 14:31:27
INDEX 01 14:32:47
TRACK 05 AUDIO
TITLE "New Look"
PERFORMER "Warning"
INDEX 00 18:15:50
INDEX 01 18:16:72
TRACK 06 AUDIO
TITLE "Tel Que Tu L'imaginais"
PERFORMER "Warning"
INDEX 00 22:28:07
INDEX 01 22:29:70
TRACK 07 AUDIO
TITLE "Satan Relaps"
PERFORMER "Warning"
INDEX 00 28:07:60
INDEX 01 28:09:25
TRACK 08 AUDIO
TITLE "Alice In Yonderland (faux <live>)"
PERFORMER "Warning"
INDEX 00 31:55:07
INDEX 01 31:56:50


Log
Exact Audio Copy V0.99 prebeta 4 from 23. January 2008

Отчёт EAC об извлечении, выполненном 9. июля 2010, 9:38

Warning / Warning

Дисковод: TSSTcorpCDDVDW SH-S202N Adapter: 0 ID: 1

Режим чтения : Достоверность
Использование точного потока : Да
Отключение кэша аудио : Да
Использование указателей C2 : Нет

Коррекция смещения при чтении : 6
Способность читать области Lead-in и Lead-out : Нет
Заполнение пропущенных сэмплов тишиной : Да
Удаление блоков с тишиной в начале и конце : Нет
При вычислениях CRC использовались нулевые сэмплы : Нет
Интерфейс : Установленный внешний ASPI-интерфейс

Выходной формат : Пользовательский кодировщик
Выбранный битрейт : 768 kBit/s
Качество : Высокий
Добавление ID3-тэга : Нет
Утилита сжатия : C:\Program Files\Exact Audio Copy\FLAC\FLAC.EXE
Дополнительные параметры : -6 -V -T "ARTIST=%a" -T "TITLE=%t" -T "ALBUM=%g" -T "DATE=%y" -T "TRACKNUMBER=%n" -T "GENRE=%m" -T "COMMENT=%e" %s -o %d


TOC извлечённого CD

Трек | Старт | Длительность | Начальный сектор | Конечный сектор
---------------------------------------------------------------------
1 | 0:00.32 | 5:09.08 | 32 | 23214
2 | 5:09.40 | 4:48.10 | 23215 | 44824
3 | 9:57.50 | 4:34.72 | 44825 | 65446
4 | 14:32.47 | 3:44.25 | 65447 | 82271
5 | 18:16.72 | 4:12.73 | 82272 | 101244
6 | 22:29.70 | 5:39.30 | 101245 | 126699
7 | 28:09.25 | 3:47.25 | 126700 | 143749
8 | 31:56.50 | 4:01.12 | 143750 | 161836


Характеристики диапазона извлечения и сообщения об ошибках

Выбранный диапазон

Имя файла F:\Лоси\W\Warning - same.wav

Пиковый уровень 100.0 %
Качество диапазона 100.0 %
CRC копии 57A77D86
Копирование... OK

Ошибок не произошло


AccurateRip: сводка

Трек 1 точность не определена (достоверность 3) [7A8ED1CD], AccurateRip вернул [2343991D]
Трек 2 точность не определена (достоверность 3) [CE7A713B], AccurateRip вернул [FC831B0B]
Трек 3 точность не определена (достоверность 3) [15490963], AccurateRip вернул [CD310523]
Трек 4 точность не определена (достоверность 3) [7DB304BE], AccurateRip вернул [FB9A0B8E]
Трек 5 точность не определена (достоверность 3) [6AF2108E], AccurateRip вернул [3FF6EEBE]
Трек 6 точность не определена (достоверность 3) [E882D479], AccurateRip вернул [4C4D1F19]
Трек 7 точность не определена (достоверность 3) [D0C81854], AccurateRip вернул [2958FE64]
Трек 8 точность не определена (достоверность 3) [B9CCC4C2], AccurateRip вернул [5072B422]

Ни один трек не прошёл проверки на точность
В вашей базе может быть иной вариант штамповки диска

Конец отчёта


Megaupload


Top
 Profile  
 
 
PostPosted: 09 Jul 2010 
Прокъмитолист
User avatar
Joined: 12 Aug 2007
Posts: 6514
Lоcаtion: Санктъ-Петербуркъ
Age: 51
Name: Олекъ
Серёг, ты что Axe Killer грабанул? ;) заберу, спасибо :thanx:

_________________
прокъметол - это музыко, от которово есть прок (ы)


Top
 Profile  
 
 
PostPosted: 09 Jul 2010 
Генеральный thrasher
User avatar
Joined: 03 Oct 2008
Posts: 3536
Lоcаtion: Ханты-Мансийский АО
Age: 43
Name: Сергей
Да не выдержала душа.Выкупил пачкой H-Bomb и Warning.Давно охотился...На здоровье,Олег!Жлобством не страдаю.Всегда с товарищами делюсь. :losik: :meloman:


Top
 Profile  
 
 
PostPosted: 09 Jul 2010 
Хиппей (support team)
User avatar
Joined: 30 Jul 2007
Posts: 108909
Lоcаtion: Киев (Kyiv, UA)
Age: 45
Name: Andrey
Спасибо! :true:

_________________


Top
 Profile E-mail  
 
 
PostPosted: 09 Jul 2010 
Прокъмитолист
User avatar
Joined: 12 Aug 2007
Posts: 6514
Lоcаtion: Санктъ-Петербуркъ
Age: 51
Name: Олекъ
thorbeorn wrote:
Всегда с товарищами делюсь

во-во, и я такой же. наверно не успокоюсь пока все, что есть на фирме, в сеть не выложу :crazy: :true:

_________________
прокъметол - это музыко, от которово есть прок (ы)


Top
 Profile  
 
Display posts from previous:  Sort by  
Post new topic Reply to topic  [ 5 posts ] 

All times are UTC + 3 hours


Who is online

Users browsing this forum: No registered users and 3 guests


You cannot post new topics in this forum
You cannot reply to topics in this forum
You cannot edit your posts in this forum
You cannot delete your posts in this forum
You cannot post attachments in this forum

Search for:
Яндекс.Метрика
Powered by phpBB © 2000, 2002, 2005, 2007 phpBB Group