\m/ 80's metal \m/

Информационно-аналитический форум "80 см пыли" (In Search We Trust) "У нас никто никуда не спешит"
Me For You - http://me-4u.com
It is currently 13 Dec 2018

All times are UTC + 3 hours

Spoiler
Chat - temporary registration for foreign users (please leave your application here)







Post new topic Reply to topic  [ 3 posts ] 
Author Message
 
PostPosted: 01 Jul 2010 
ыыыы
User avatar
Joined: 17 May 2009
Posts: 952
Lоcаtion: Пушкино, МО
Age: 40
Name: Дмитрий
Image


Жанр: Hard Rock
Происхождение исполнителя: Англия
Год издания: 1984
Год издания данного носителя: 1984
Страна-производитель носителя: Япония
Аудио кодек: FLAC
Тип рипа: image+.cue
Битрейт аудио: lossless
Продолжительность: 40:28
Рип: Собственный
Лейбл: GEFFEN/CBS-SONY
Каталоговый номер: 35DP 118
Матрица: 35DP-118 11 (SONY)

Треклист:
1. Gambler 04:02
2. Slide It In 03:19
3. Standing In The Shadow 03:36
4. Give Me more Time 03:42
5. Love Ain't No Stranger 04:17
6. Slow An' Easy 06:10
7. Spit It Out 04:18
8. All Or Nothing 03:40
9. Hungry For Love 03:58
10. Guilty Of Love 03:24

"Куй"
REM GENRE "Hard Rock"
REM DATE 1984
REM DISCID 8D097C0A
REM COMMENT "ExactAudioCopy v0.99pb5"
PERFORMER "Whitesnake"
TITLE "Slide It In [35DP 118]"
FILE "Whitesnake - Slide It In [35DP 118].flac" WAVE
TRACK 01 AUDIO
TITLE "Gambler"
PERFORMER "Whitesnake"
INDEX 01 00:00:00
TRACK 02 AUDIO
TITLE "Slide It In"
PERFORMER "Whitesnake"
INDEX 01 04:02:30
TRACK 03 AUDIO
TITLE "Standing In The Shadow"
PERFORMER "Whitesnake"
INDEX 01 07:21:67
TRACK 04 AUDIO
TITLE "Give Me More Time"
PERFORMER "Whitesnake"
INDEX 01 10:57:67
TRACK 05 AUDIO
TITLE "Love Ain't No Stranger"
PERFORMER "Whitesnake"
INDEX 01 14:40:27
TRACK 06 AUDIO
TITLE "Slow An' Easy"
PERFORMER "Whitesnake"
INDEX 00 18:55:30
INDEX 01 18:57:45
TRACK 07 AUDIO
TITLE "Spit It Out"
PERFORMER "Whitesnake"
INDEX 01 25:08:05
TRACK 08 AUDIO
TITLE "All Or Nothing"
PERFORMER "Whitesnake"
INDEX 00 29:24:52
INDEX 01 29:25:45
TRACK 09 AUDIO
TITLE "Hungry For Love"
PERFORMER "Whitesnake"
INDEX 00 33:04:50
INDEX 01 33:06:02
TRACK 10 AUDIO
TITLE "Guilty Of Love"
PERFORMER "Whitesnake"
INDEX 01 37:04:30


"Лог"
Exact Audio Copy V0.99 prebeta 5 from 4. May 2009

Отчёт EAC об извлечении, выполненном 1. июля 2010, 16:22

Whitesnake / Slide It In [35DP 118]

Дисковод: Optiarc DVD RW AD-7200A Adapter: 1 ID: 0

Режим чтения : Достоверность
Использование точного потока : Да
Отключение кэша аудио : Да
Использование указателей C2 : Нет

Коррекция смещения при чтении : 48
Способность читать области Lead-in и Lead-out : Нет
Заполнение пропущенных сэмплов тишиной : Да
Удаление блоков с тишиной в начале и конце : Нет
При вычислениях CRC использовались нулевые сэмплы : Да
Интерфейс : Встроенный Win32-интерфейс для Win NT/2000

Выходной формат : Пользовательский кодировщик
Выбранный битрейт : 128 kBit/s
Качество : Высокий
Добавление ID3-тэга : Нет
Утилита сжатия : C:\Program Files\Exact Audio Copy\Flac\flac.exe
Дополнительные параметры : -8 -V -T "artist=%a" -T "title=%t" -T "album=%g" -T "date=%y" -T "tracknumber=%n" -T "genre=%m" -T "comment=EAC


TOC извлечённого CD

Трек | Старт | Длительность | Начальный сектор | Конечный сектор
---------------------------------------------------------------------
1 | 0:00.00 | 4:02.30 | 0 | 18179
2 | 4:02.30 | 3:19.37 | 18180 | 33141
3 | 7:21.67 | 3:36.00 | 33142 | 49341
4 | 10:57.67 | 3:42.35 | 49342 | 66026
5 | 14:40.27 | 4:17.18 | 66027 | 85319
6 | 18:57.45 | 6:10.35 | 85320 | 113104
7 | 25:08.05 | 4:17.40 | 113105 | 132419
8 | 29:25.45 | 3:40.32 | 132420 | 148951
9 | 33:06.02 | 3:58.28 | 148952 | 166829
10 | 37:04.30 | 3:23.62 | 166830 | 182116


Характеристики диапазона извлечения и сообщения об ошибках

Выбранный диапазон

Имя файла Y:\Музыка\Whitesnake\1984 Slide It In\Whitesnake - Slide It In [35DP 118].wav

Пиковый уровень 95.7 %
Качество диапазона 100.0 %
CRC копии 6572E08C
Копирование... OK

Ошибок не произошло


AccurateRip: сводка

Трек 1 точность не определена (достоверность 1) [C0B3E1F6], AccurateRip вернул [8206F65C]
Трек 2 точность не определена (достоверность 1) [B84F9D97], AccurateRip вернул [438E6FE5]
Трек 3 точность не определена (достоверность 1) [15C9AB78], AccurateRip вернул [352D7843]
Трек 4 точность не определена (достоверность 1) [12B1CC65], AccurateRip вернул [ABC820F9]
Трек 5 точность не определена (достоверность 1) [0729FD8C], AccurateRip вернул [D46D8C2D]
Трек 6 точность не определена (достоверность 1) [57CE27DC], AccurateRip вернул [53EE2495]
Трек 7 точность не определена (достоверность 1) [504DF38D], AccurateRip вернул [E8E39958]
Трек 8 точность не определена (достоверность 1) [B27C677D], AccurateRip вернул [92FA31B2]
Трек 9 точность не определена (достоверность 1) [17FF9485], AccurateRip вернул [F0538693]
Трек 10 точность не определена (достоверность 1) [1F880D0A], AccurateRip вернул [7A10496D]

Ни один трек не прошёл проверки на точность
В вашей базе может быть иной вариант штамповки диска

Конец отчёта


Состав:
David Coverdale: Lead vocals, percussion, piano
Micky Moody: Guitars
Mel Galley: Guitars, backing vocals
Colin "Bomber" Hodgkinson: Bass
Jon Lord: Keyboards
Cozy Powell: Drums

35DP 118

_________________
Витасу до Даймонда как Алсу до Руссоса | При переразмещении - спрашивать разрешение!!


Last edited by iezuit on 04 Jul 2010, edited 4 times in total.

Top
 Profile  
 
 
PostPosted: 01 Jul 2010 
ыыыы
User avatar
Joined: 17 May 2009
Posts: 952
Lоcаtion: Пушкино, МО
Age: 40
Name: Дмитрий
это более правильный рип диска 84 года
http://rutracker.org/forum/viewtopic.php?t=2857334 - это пресс 88 года
его лог
"Лог"
Exact Audio Copy V0.99 prebeta 5 from 4. May 2009

Отчёт EAC об извлечении, выполненном 1. июля 2010, 21:28

Whitesnake / Slide It In [35DP 118]

Дисковод: MATSHITADVD-RAM UJ-850S Adapter: 0 ID: 0

Режим чтения : Достоверность
Использование точного потока : Да
Отключение кэша аудио : Да
Использование указателей C2 : Нет

Коррекция смещения при чтении : 102
Способность читать области Lead-in и Lead-out : Нет
Заполнение пропущенных сэмплов тишиной : Да
Удаление блоков с тишиной в начале и конце : Нет
При вычислениях CRC использовались нулевые сэмплы : Да
Интерфейс : Установленный внешний ASPI-интерфейс

Выходной формат : Пользовательский кодировщик
Выбранный битрейт : 128 kBit/s
Качество : Высокий
Добавление ID3-тэга : Нет
Утилита сжатия : C:\Program Files\Exact Audio Copy\Flac\flac.exe
Дополнительные параметры : -6 -V -T "artist=%a" -T "title=%t" -T "album=%g" -T "date=%y" -T "tracknumber=%n" -T "genre=%m" -T "comment=EAC 0.99beta5 / FLAC 1.1.0 q6" %s


TOC извлечённого CD

Трек | Старт | Длительность | Начальный сектор | Конечный сектор
---------------------------------------------------------------------
1 | 0:00.00 | 4:02.30 | 0 | 18179
2 | 4:02.30 | 3:19.37 | 18180 | 33141
3 | 7:21.67 | 3:36.00 | 33142 | 49341
4 | 10:57.67 | 3:42.35 | 49342 | 66026
5 | 14:40.27 | 4:17.18 | 66027 | 85319
6 | 18:57.45 | 6:10.35 | 85320 | 113104
7 | 25:08.05 | 4:17.40 | 113105 | 132419
8 | 29:25.45 | 3:40.32 | 132420 | 148951
9 | 33:06.02 | 3:58.28 | 148952 | 166829
10 | 37:04.30 | 3:23.62 | 166830 | 182116


Характеристики диапазона извлечения и сообщения об ошибках

Выбранный диапазон

Имя файла Y:\Музыка\Whitesnake\1984 Slide It In\Whitesnake - Slide It In [35DP 118].wav

Пиковый уровень 95.7 %
Качество диапазона 100.0 %
CRC копии 13081D85
Копирование... OK

Ошибок не произошло


AccurateRip: сводка

Трек 1 точность не определена (достоверность 1) [43FFF3C3], AccurateRip вернул [8206F65C]
Трек 2 точность не определена (достоверность 1) [F6CB22F8], AccurateRip вернул [438E6FE5]
Трек 3 точность не определена (достоверность 1) [D6BEF798], AccurateRip вернул [352D7843]
Трек 4 точность не определена (достоверность 1) [3543FD9C], AccurateRip вернул [ABC820F9]
Трек 5 точность не определена (достоверность 1) [B78AA2AB], AccurateRip вернул [D46D8C2D]
Трек 6 точность не определена (достоверность 1) [FF125AD8], AccurateRip вернул [53EE2495]
Трек 7 точность не определена (достоверность 1) [9F7DAFDB], AccurateRip вернул [E8E39958]
Трек 8 точность не определена (достоверность 1) [7A8845B8], AccurateRip вернул [92FA31B2]
Трек 9 точность не определена (достоверность 1) [9FF22818], AccurateRip вернул [F0538693]
Трек 10 точность не определена (достоверность 1) [CE57AF47], AccurateRip вернул [7A10496D]

Ни один трек не прошёл проверки на точность
В вашей базе может быть иной вариант штамповки диска

Конец отчёта

Размеры образа тоже разные

_________________
Витасу до Даймонда как Алсу до Руссоса | При переразмещении - спрашивать разрешение!!


Last edited by iezuit on 01 Jul 2010, edited 2 times in total.

Top
 Profile  
 
 
PostPosted: 01 Jul 2010 
Motörheadache
User avatar
Joined: 04 Feb 2010
Posts: 1294
Lоcаtion: Впереди- горы,позади-степи
Age: 45
Name: Александр
Первый....уже очень давно услышанный белозмеинный альбом.....
Ностальжи.... :umnik:

_________________
Eine Nation, Ein Land, Eine Schnaps!

Наш священный долг:защищать Родину,и соблюдать правила личной гигиены....!


Top
 Profile E-mail  
 
Display posts from previous:  Sort by  
Post new topic Reply to topic  [ 3 posts ] 

All times are UTC + 3 hours


Who is online

Users browsing this forum: No registered users and 1 guest


You cannot post new topics in this forum
You cannot reply to topics in this forum
You cannot edit your posts in this forum
You cannot delete your posts in this forum
You cannot post attachments in this forum

Search for:
Яндекс.Метрика
Powered by phpBB © 2000, 2002, 2005, 2007 phpBB Group