\m/ 80's metal \m/

Информационно-аналитический форум "80 см пыли" (In Search We Trust) "У нас никто никуда не спешит"
Железнодорожная биржа - RailAgent
It is currently 16 Aug 2018

All times are UTC + 3 hours

Spoiler
Chat - temporary registration for foreign users (please leave your application here)







Post new topic Reply to topic  [ 2 posts ] 
Author Message
 
PostPosted: 05 May 2010 
мелосмертхстер
User avatar
Joined: 11 Jul 2008
Posts: 1058
Lоcаtion: (Әлмәт/Самара)
Age: 41
Name: Rus†Ⓐm
Image

Год: 2006
Стиль: Heavy/Stoner/Doom Metal
Страна: USA
Формат: Flac + Log + Cue
Размер: 268 mb

tau
Image


Kyle Thomas - Vocals, Guitar
Dave Sweetapple - Bass
J Mascis - Drums
Asa Irons - Guitar

Трэклист:

1. Seer
2. Soul of Fire
3. Black Saint
4. Changing
5. Rip Van Winkle
6. Hand of Glory
7. Isadora

log
EAC extraction logfile from 5. May 2010, 12:08 for CD
Witch / Witch

Used drive : TSSTcorpCDDVDW SH-S203B Adapter: 1 ID: 0
Read mode : Secure with NO C2, accurate stream, disable cache
Read offset correction : 6
Overread into Lead-In and Lead-Out : No

Used output format : Internal WAV Routines
44.100 Hz; 16 Bit; Stereo

Other options :
Fill up missing offset samples with silence : Yes
Delete leading and trailing silent blocks : No
Installed external ASPI interface


Range status and errors
Selected range
Filename C:\Documents and Settings\Администратор\Рабочий стол\Witch - Witch.wav

Peak level 99.8 %
Range quality 100.0 %
CRC E5C65C7D
Copy OK

No errors occured

End of status report


cue
REM DATE 2006
REM DISCID 60098207
REM COMMENT "ExactAudioCopy v0.95b4"
PERFORMER "Witch"
TITLE "Witch"
FILE "Witch - Witch.flac" WAVE
TRACK 01 AUDIO
TITLE "Seer"
PERFORMER "Witch"
INDEX 01 00:00:00
TRACK 02 AUDIO
TITLE "Soul of Fire"
PERFORMER "Witch"
INDEX 01 07:57:69
TRACK 03 AUDIO
TITLE "Black Saint"
PERFORMER "Witch"
INDEX 01 11:35:47
TRACK 04 AUDIO
TITLE "Changing"
PERFORMER "Witch"
INDEX 00 17:37:62
INDEX 01 17:38:41
TRACK 05 AUDIO
TITLE "Rip Van Winkle"
PERFORMER "Witch"
INDEX 01 24:20:74
TRACK 06 AUDIO
TITLE "Hand of Glory"
PERFORMER "Witch"
INDEX 01 29:04:67
TRACK 07 AUDIO
TITLE "Isadora"
PERFORMER "Witch"
INDEX 01 34:33:36


Witch (USA) - Witch 2006 [flac]

_________________
Everytime I Die

Image


Last edited by bodomchild76 on 05 Jul 2010, edited 1 time in total.

Top
 Profile E-mail  
 
 
PostPosted: 05 May 2010 
Работнечег
User avatar
Joined: 28 Aug 2007
Posts: 5399
Lоcаtion: г. Москва
Age: 29
Name: Дима
Спасибо!Хорошая группка! Пойду заодно их альбом 2008 года скачаю...


Top
 Profile E-mail  
 
Display posts from previous:  Sort by  
Post new topic Reply to topic  [ 2 posts ] 

All times are UTC + 3 hours


Who is online

Users browsing this forum: No registered users and 3 guests


You cannot post new topics in this forum
You cannot reply to topics in this forum
You cannot edit your posts in this forum
You cannot delete your posts in this forum
You cannot post attachments in this forum

Search for:
Яндекс.Метрика
Powered by phpBB © 2000, 2002, 2005, 2007 phpBB Group