\m/ 80's metal \m/

Информационно-аналитический форум "80 см пыли" (In Search We Trust) "У нас никто никуда не спешит"
Me For You - http://me-4u.com
It is currently 21 Nov 2018

All times are UTC + 3 hours

Spoiler
Chat - temporary registration for foreign users (please leave your application here)







Post new topic Reply to topic  [ 10 posts ] 
Author Message
 
PostPosted: 29 Apr 2010 
Генеральный thrasher
User avatar
Joined: 03 Oct 2008
Posts: 3509
Lоcаtion: Ханты-Мансийский АО
Age: 43
Name: Сергей
Image

Year: 1988
Style: Speed Metal/NWOBHM
Country: U.K.
Format: Flac+Cue+Log
Size: 269Mb

Tracklist:
1. Wax Works 02:24
2. Hate to Create 03:59
3. Revolution 01:21
4. Dancing in the Flames Of Insanity 06:21
5. Evolution 01:16
6. Fatal Vision 05:03
7. Deathcharge/Doomsday 05:58
8. Order of the Dragons 03:39
9. Elite Forces 05:18
10. Rejoice the Feast of Quarantine 03:32
11. Noise, Filth and Fury Requiem 01:13

Cue
REM DISCID A309A00B
REM COMMENT "ExactAudioCopy v0.99pb4"
PERFORMER "Warfare"
TITLE "A Conflict Of Hatred"
FILE "Warfare - A Conflict Of Hatred.flac" WAVE
TRACK 01 AUDIO
TITLE "Wax Works"
PERFORMER "Warfare"
INDEX 00 00:00:00
INDEX 01 00:00:33
TRACK 02 AUDIO
TITLE "Hate To Create"
PERFORMER "Warfare"
INDEX 01 02:37:60
TRACK 03 AUDIO
TITLE "Revolution"
PERFORMER "Warfare"
INDEX 01 06:43:40
TRACK 04 AUDIO
TITLE "Dancing In The Flames Of Insanity"
PERFORMER "Warfare"
INDEX 01 08:04:73
TRACK 05 AUDIO
TITLE "Evolution"
PERFORMER "Warfare"
INDEX 01 14:35:28
TRACK 06 AUDIO
TITLE "Fatal Vision"
PERFORMER "Warfare"
INDEX 01 15:42:58
TRACK 07 AUDIO
TITLE "Deathcharge (Doomsday)"
PERFORMER "Warfare"
INDEX 01 20:56:25
TRACK 08 AUDIO
TITLE "Order Of The Dragons"
PERFORMER "Warfare"
INDEX 01 27:01:38
TRACK 09 AUDIO
TITLE "Elite Forces"
PERFORMER "Warfare"
INDEX 01 30:46:08
TRACK 10 AUDIO
TITLE "Rejoice The Feast Of Quarantine"
PERFORMER "Warfare"
INDEX 01 34:54:20
TRACK 11 AUDIO
TITLE "Noise, Filth And Fury Requiem"
PERFORMER "Warfare"
INDEX 01 39:48:35


Log
Exact Audio Copy V0.99 prebeta 4 from 23. January 2008

Отчёт EAC об извлечении, выполненном 29. апреля 2010, 18:07

Warfare / A Conflict Of Hatred

Дисковод: ATAPI DVD A DH20A4P Adapter: 0 ID: 1

Режим чтения : Достоверность
Использование точного потока : Да
Отключение кэша аудио : Да
Использование указателей C2 : Да

Коррекция смещения при чтении : 6
Способность читать области Lead-in и Lead-out : Нет
Заполнение пропущенных сэмплов тишиной : Да
Удаление блоков с тишиной в начале и конце : Нет
При вычислениях CRC использовались нулевые сэмплы : Нет
Интерфейс : Установленный внешний ASPI-интерфейс

Выходной формат : Пользовательский кодировщик
Выбранный битрейт : 768 kBit/s
Качество : Высокий
Добавление ID3-тэга : Нет
Утилита сжатия : C:\Program Files\Exact Audio Copy\FLAC\FLAC.EXE
Дополнительные параметры : -6 -V -T "ARTIST=%a" -T "TITLE=%t" -T "ALBUM=%g" -T "DATE=%y" -T "TRACKNUMBER=%n" -T "GENRE=%m" -T "COMMENT=%e" %s -o %d


TOC извлечённого CD

Трек | Старт | Длительность | Начальный сектор | Конечный сектор
---------------------------------------------------------------------
1 | 0:00.33 | 2:37.27 | 33 | 11834
2 | 2:37.60 | 4:05.55 | 11835 | 30264
3 | 6:43.40 | 1:21.33 | 30265 | 36372
4 | 8:04.73 | 6:30.30 | 36373 | 65652
5 | 14:35.28 | 1:07.30 | 65653 | 70707
6 | 15:42.58 | 5:13.42 | 70708 | 94224
7 | 20:56.25 | 6:05.13 | 94225 | 121612
8 | 27:01.38 | 3:44.45 | 121613 | 138457
9 | 30:46.08 | 4:08.12 | 138458 | 157069
10 | 34:54.20 | 4:54.15 | 157070 | 179134
11 | 39:48.35 | 1:16.23 | 179135 | 184857


Характеристики диапазона извлечения и сообщения об ошибках

Выбранный диапазон

Имя файла F:\Лоси\Warfare - A Conflict Of Hatred.wav

Пиковый уровень 95.5 %
Качество диапазона 100.0 %
CRC копии 7C02C9E7
Копирование... OK

Ошибок не произошло


AccurateRip: сводка

Трек 1 нет в базе данных
Трек 2 нет в базе данных
Трек 3 нет в базе данных
Трек 4 нет в базе данных
Трек 5 нет в базе данных
Трек 6 нет в базе данных
Трек 7 нет в базе данных
Трек 8 нет в базе данных
Трек 9 нет в базе данных
Трек 10 нет в базе данных
Трек 11 нет в базе данных

Ни одного трека нет в базе AccurateRip

Конец отчёта


Megaupload


Top
 Profile  
 
 
PostPosted: 29 Apr 2010 
Персональный статус
Joined: 06 Oct 2007
Posts: 339
Спасибо! Я в свое время проморгал этот альбом.


Top
 Profile  
 
 
PostPosted: 30 Apr 2010 
Motörheadache
User avatar
Joined: 04 Feb 2010
Posts: 1294
Lоcаtion: Впереди- горы,позади-степи
Age: 45
Name: Александр
опачки.....Яка несподиванка! :true:
Спасибо ! :thanx:

_________________
Eine Nation, Ein Land, Eine Schnaps!

Наш священный долг:защищать Родину,и соблюдать правила личной гигиены....!


Top
 Profile E-mail  
 
 
PostPosted: 30 Apr 2010 
мелосмертхстер
User avatar
Joined: 11 Jul 2008
Posts: 1058
Lоcаtion: (Әлмәт/Самара)
Age: 42
Name: Rus†Ⓐm
:thanx:

_________________
Everytime I Die

Image


Top
 Profile E-mail  
 
 
PostPosted: 30 Apr 2010 
Анатолий
User avatar
Joined: 18 Oct 2008
Posts: 3193
Lоcаtion: Армавир
Age: 41
Name: Анатолий
thorbeorn

Огромное спасибо за релиз! :thanx: Давно искал в таком виде. :true:


Top
 Profile E-mail  
 
 
PostPosted: 22 May 2010 
Пионэръ
Joined: 22 May 2010
Posts: 14
Lоcаtion: Russia
Name: Eugene
Супер!
Давно искал этот альбом! Большое спасибо!


Top
 Profile E-mail  
 
 
PostPosted: 03 Jul 2010 
Я набрал 1000 сообщений!
User avatar
Joined: 25 Dec 2008
Posts: 1545
Age: 43
Name: Павел
Серега,спасибо! :true:


Top
 Profile  
 
 
PostPosted: 11 Aug 2011 
ТрэшЭрос
User avatar
Joined: 18 Jul 2011
Posts: 2300
Lоcаtion: Гулькевичи
Age: 43
Name: Александр
:thanx:

_________________
Thrash no trash!!!


Top
 Profile E-mail  
 
 
PostPosted: 11 Aug 2011 
А может смените мне статус?..
User avatar
Joined: 24 Dec 2008
Posts: 621
Age: 44
Name: Дмитрий
Спасибо, упустил.


Top
 Profile  
 
 
PostPosted: 11 Aug 2011 
Хиппей (support team)
User avatar
Joined: 30 Jul 2007
Posts: 108231
Lоcаtion: Киев (Kyiv, UA)
Age: 45
Name: Andrey
:thanx:

mirror: F-Bit l Narod

_________________


Top
 Profile E-mail  
 
Display posts from previous:  Sort by  
Post new topic Reply to topic  [ 10 posts ] 

All times are UTC + 3 hours


Who is online

Users browsing this forum: No registered users and 6 guests


You cannot post new topics in this forum
You cannot reply to topics in this forum
You cannot edit your posts in this forum
You cannot delete your posts in this forum
You cannot post attachments in this forum

Search for:
Яндекс.Метрика
Powered by phpBB © 2000, 2002, 2005, 2007 phpBB Group