\m/ 80's metal \m/

Информационно-аналитический форум "80 см пыли" (In Search We Trust) "У нас никто никуда не спешит"
Me For You - http://me-4u.com
It is currently 24 Oct 2018

All times are UTC + 3 hours

Spoiler
Chat - temporary registration for foreign users (please leave your application here)







Post new topic Reply to topic  [ 14 posts ] 
Author Message
 
PostPosted: 20 Apr 2010 
ыыыы
User avatar
Joined: 17 May 2009
Posts: 952
Lоcаtion: Пушкино, МО
Age: 40
Name: Дмитрий
Image


Жанр: Heavy Metal
Происхождение исполнителя: США
Год издания: 1986
Год издания данного носителя: 1986
Страна-производитель носителя: Япония
Аудио кодек: FLAC
Тип рипа: image+.cue
Битрейт аудио: lossless
Продолжительность: 47:59
Рип: Собственный
Лейбл: CAPITOL/EMI
Каталоговый номер: CP32-5177 Блек Триангле
Матрица: CP32-5177 1A1 TO (TOSHIBA)

Треклист:
1. The Big Welcome 01:15
2. Inside the Electric Circus 03:43
3. I Don't Need No Doctor (Ray Charles Cover) 03:28
4. 9.5.-N.A.S.T.Y. 04:50
5. Restless Gypsy 05:02
6. Shoot From the Hip 04:43
7. I'm Alive 04:25
8. Easy Living (Uriah Heep cover) 03:14
9. Sweet Cheetah 05:19
10. Mantronic 04:12
11. King of Sodom and Gomorrah 03:53
12. The Rock Rolls On 03:55

"Куй"
REM GENRE "Hard Rock"
REM DATE 1986
REM DISCID A00B3F0C
REM COMMENT "ExactAudioCopy v0.99pb5"
PERFORMER "W.A.S.P."
TITLE "Inside The Electric Circus [CP32-5177]"
FILE "W.A.S.P. - Inside The Electric Circus [CP32-5177].flac" WAVE
TRACK 01 AUDIO
TITLE "The Big Welcome"
PERFORMER "W.A.S.P."
INDEX 01 00:00:00
TRACK 02 AUDIO
TITLE "Inside The Electric Circus"
PERFORMER "W.A.S.P."
INDEX 01 01:14:55
TRACK 03 AUDIO
TITLE "I Don't Need No Doctor"
PERFORMER "W.A.S.P."
INDEX 01 04:57:72
TRACK 04 AUDIO
TITLE "9.5.-N.A.S.T.Y"
PERFORMER "W.A.S.P."
INDEX 01 08:25:72
TRACK 05 AUDIO
TITLE "Restress Gypsy"
PERFORMER "W.A.S.P."
INDEX 01 13:16:30
TRACK 06 AUDIO
TITLE "Shoot From The Hip"
PERFORMER "W.A.S.P."
INDEX 01 18:18:55
TRACK 07 AUDIO
TITLE "I'm Alive"
PERFORMER "W.A.S.P."
INDEX 01 23:02:17
TRACK 08 AUDIO
TITLE "Easy Living"
PERFORMER "W.A.S.P."
INDEX 01 27:26:65
TRACK 09 AUDIO
TITLE "Sweet Cheetah"
PERFORMER "W.A.S.P."
INDEX 01 30:40:47
TRACK 10 AUDIO
TITLE "Mantronic"
PERFORMER "W.A.S.P."
INDEX 01 35:59:17
TRACK 11 AUDIO
TITLE "King Of Sodom And Gomorrah"
PERFORMER "W.A.S.P."
INDEX 01 40:10:67
TRACK 12 AUDIO
TITLE "The Rock Rolls On"
PERFORMER "W.A.S.P."
INDEX 01 44:04:00


"Лог"
Exact Audio Copy V0.99 prebeta 5 from 4. May 2009

EAC extraction logfile from 20. April 2010, 10:01

W.A.S.P. / Inside The Electric Circus [CP32-5177]

Used drive : Optiarc DVD RW AD-7200A Adapter: 0 ID: 0

Read mode : Secure
Utilize accurate stream : Yes
Defeat audio cache : Yes
Make use of C2 pointers : No

Read offset correction : 48
Overread into Lead-In and Lead-Out : No
Fill up missing offset samples with silence : Yes
Delete leading and trailing silent blocks : No
Null samples used in CRC calculations : Yes
Used interface : Native Win32 interface for Win NT & 2000

Used output format : User Defined Encoder
Selected bitrate : 128 kBit/s
Quality : High
Add ID3 tag : No
Command line compressor : C:\Program Files\Exact Audio Copy\Flac\flac.exe
Additional command line options : -8 -V -T "artist=%a" -T "title=%t" -T "album=%g" -T "date=%y" -T "tracknumber=%n" -T "genre=%m" -T "comment=EAC 0.9beta4 / FLAC 1.1.0 q6" %s


TOC of the extracted CD

Track | Start | Length | Start sector | End sector
---------------------------------------------------------
1 | 0:00.00 | 1:14.55 | 0 | 5604
2 | 1:14.55 | 3:43.17 | 5605 | 22346
3 | 4:57.72 | 3:28.00 | 22347 | 37946
4 | 8:25.72 | 4:50.33 | 37947 | 59729
5 | 13:16.30 | 5:02.25 | 59730 | 82404
6 | 18:18.55 | 4:43.37 | 82405 | 103666
7 | 23:02.17 | 4:24.48 | 103667 | 123514
8 | 27:26.65 | 3:13.57 | 123515 | 138046
9 | 30:40.47 | 5:18.45 | 138047 | 161941
10 | 35:59.17 | 4:11.50 | 161942 | 180816
11 | 40:10.67 | 3:53.08 | 180817 | 198299
12 | 44:04.00 | 3:55.10 | 198300 | 215934


Range status and errors

Selected range

Filename Y:\Музыка\W.A.S.P\1986 Inside The Electric Circus\W.A.S.P. - Inside The Electric Circus [CP32-5177].wav

Peak level 100.0 %
Range quality 100.0 %
Copy CRC 3F087C75
Copy OK

No errors occurred

End of status report


Состав:
Blackie Lawless: Vocals, rhythm guitar
Chris Holmes: Lead and rhythm guitars
Johnny Rod: Bass
Steve Riley: Drums

Народ

_________________
Витасу до Даймонда как Алсу до Руссоса | При переразмещении - спрашивать разрешение!!


Last edited by iezuit on 20 Apr 2010, edited 1 time in total.

Top
 Profile  
 
 
PostPosted: 20 Apr 2010 
А может смените мне статус?..
User avatar
Joined: 24 Dec 2008
Posts: 618
Age: 44
Name: Дмитрий
Спасибо.


Top
 Profile  
 
 
PostPosted: 22 Apr 2010 
Alive Again
User avatar
Joined: 17 Dec 2008
Posts: 4704
Lоcаtion: Курск Воронеж Оскол
Age: 44
Name: Дмитрий
:crazy: :true: :thanx:


Top
 Profile E-mail  
 
 
PostPosted: 22 Apr 2010 
Хиппей (support team)
User avatar
Joined: 30 Jul 2007
Posts: 107159
Lоcаtion: Киев (Kyiv, UA)
Age: 45
Name: Andrey
:true:

_________________


Top
 Profile E-mail  
 
 
PostPosted: 22 Apr 2010 
Motörheadache
User avatar
Joined: 04 Feb 2010
Posts: 1294
Lоcаtion: Впереди- горы,позади-степи
Age: 45
Name: Александр
:band: :true:

_________________
Eine Nation, Ein Land, Eine Schnaps!

Наш священный долг:защищать Родину,и соблюдать правила личной гигиены....!


Top
 Profile E-mail  
 
 
PostPosted: 22 Apr 2010 
ыыыы
User avatar
Joined: 17 May 2009
Posts: 952
Lоcаtion: Пушкино, МО
Age: 40
Name: Дмитрий
alexx1973
сам люблю!!!

_________________
Витасу до Даймонда как Алсу до Руссоса | При переразмещении - спрашивать разрешение!!


Top
 Profile  
 
 
PostPosted: 22 Apr 2010 
Хиппей (support team)
User avatar
Joined: 30 Jul 2007
Posts: 107159
Lоcаtion: Киев (Kyiv, UA)
Age: 45
Name: Andrey
Дык, качай, Дим :true:

_________________


Top
 Profile E-mail  
 
 
PostPosted: 23 Apr 2010 
ыыыы
User avatar
Joined: 17 May 2009
Posts: 952
Lоcаtion: Пушкино, МО
Age: 40
Name: Дмитрий
уже скачал!!!!! :true: :nunu:

_________________
Витасу до Даймонда как Алсу до Руссоса | При переразмещении - спрашивать разрешение!!


Top
 Profile  
 
 
PostPosted: 05 Jun 2010 
ыыыы
User avatar
Joined: 17 May 2009
Posts: 952
Lоcаtion: Пушкино, МО
Age: 40
Name: Дмитрий
Концертник 87 г.

Image Image

CP32-5518

_________________
Витасу до Даймонда как Алсу до Руссоса | При переразмещении - спрашивать разрешение!!


Top
 Profile  
 
 
PostPosted: 06 Jun 2010 
Alive Again
User avatar
Joined: 17 Dec 2008
Posts: 4704
Lоcаtion: Курск Воронеж Оскол
Age: 44
Name: Дмитрий
iezuit wrote:
Концертник 87 г

:crazy: :thanx:


Top
 Profile E-mail  
 
 
PostPosted: 07 Jun 2010 
Персональный статус
Joined: 02 Apr 2010
Posts: 223
Name: Андрей
Спасибо! :true:


Top
 Profile  
 
 
PostPosted: 09 Jun 2010 
Позитивный Южанин
User avatar
Joined: 07 May 2010
Posts: 1620
Lоcаtion: КРЫМ
Age: 43
Name: Алексей
БЛЭКИ ВСЕГДА В СТРУЕ :true:

_________________
WATER'EM ALL!


Top
 Profile E-mail  
 
 
PostPosted: 05 Sep 2010 
Позитивный Южанин
User avatar
Joined: 07 May 2010
Posts: 1620
Lоcаtion: КРЫМ
Age: 43
Name: Алексей
Достался правда без вкладки...http://viewmorepics.myspace.com/index.cfm?fuseaction=viewImage&friendID=431392307&albumID=0&imageID=23443206

_________________
WATER'EM ALL!


Last edited by Alex 1975 on 05 Sep 2010, edited 1 time in total.

Top
 Profile E-mail  
 
 
PostPosted: 05 Sep 2010 
Позитивный Южанин
User avatar
Joined: 07 May 2010
Posts: 1620
Lоcаtion: КРЫМ
Age: 43
Name: Алексей
Достался правда без вкладки...http://viewmorepics.myspace.com/index.cfm?fuseaction=viewImage&friendID=431392307&albumID=0&imageID=23443206

_________________
WATER'EM ALL!


Top
 Profile E-mail  
 
Display posts from previous:  Sort by  
Post new topic Reply to topic  [ 14 posts ] 

All times are UTC + 3 hours


Who is online

Users browsing this forum: No registered users and 1 guest


You cannot post new topics in this forum
You cannot reply to topics in this forum
You cannot edit your posts in this forum
You cannot delete your posts in this forum
You cannot post attachments in this forum

Search for:
Яндекс.Метрика
cron
Powered by phpBB © 2000, 2002, 2005, 2007 phpBB Group