\m/ 80's metal \m/

Информационно-аналитический форум "80 см пыли" (In Search We Trust) "У нас никто никуда не спешит"
Me For You - http://me-4u.com
It is currently 21 Nov 2018

All times are UTC + 3 hours

Spoiler
Chat - temporary registration for foreign users (please leave your application here)







Post new topic Reply to topic  [ 15 posts ] 
Author Message
 
PostPosted: 21 Nov 2009 
труъ антисионист
User avatar
Joined: 01 Aug 2007
Posts: 4541
Lоcаtion: Откуда и большинство из нас
Age: 37
Name: Дядя Вова
Image
Группа: Warlord
Альбом: And The Cannons Of Destruction Have Begun
Год: 1984
Лейбл: Metal Blade
Стиль: Heavy Metal
Страна: USA
Формат: Flac (Tracks) / Log / Cue
Размер: 250 Mb


******************************************************************************

Line Up:

* William J Tsamis (Destroyer) - guitars
* Mark Zonder (Thunderchild) - drums
* Dave Watry (Archangel) - bass
* Diane Kornarens (Sentinel) - keyboards
* Rick Cunningham (Damien King II) - vocals



Tracks:
01. Beginning/Lucifer's Hammer (4:20)
02. Lost And Lonely Days (4:09)
03. Black Mass (5:09)
04. Soliloquy (4:31)
05. Aliens (4:15)
06. MCMLXXXIV/Child Of The Damned (6:20)
07. Deliver Us From Evil (4:47)


Log
Exact Audio Copy V0.99 prebeta 4 from 23. January 2008

EAC extraction logfile from 4. September 2009, 6:12

Warlord / ...And The Cannons Of Destruction Have Begun

Used drive : _NEC DVD_RW ND-3520AW Adapter: 0 ID: 0

Read mode : Secure
Utilize accurate stream : Yes
Defeat audio cache : Yes
Make use of C2 pointers : No

Read offset correction : 48
Overread into Lead-In and Lead-Out : No
Fill up missing offset samples with silence : Yes
Delete leading and trailing silent blocks : No
Null samples used in CRC calculations : Yes
Used interface : Native Win32 interface for Win NT & 2000
Gap handling : Appended to previous track

Used output format : User Defined Encoder
Selected bitrate : 128 kBit/s
Quality : High
Add ID3 tag : No
Command line compressor : C:\Portable\FLAC\bin\flac.exe
Additional command line options : -8 -V -T "Album=%g" -T "Artist=%a" -T "Genre=%m" -T "Title=%t" -T "Tracknumber=%n" -T "Date=%y" -o "s:\encoding\flac\%n - %t.flac" %s


TOC of the extracted CD

Track | Start | Length | Start sector | End sector
---------------------------------------------------------
1 | 0:00.00 | 4:19.72 | 0 | 19496
2 | 4:19.72 | 4:09.33 | 19497 | 38204
3 | 8:29.30 | 5:08.65 | 38205 | 61369
4 | 13:38.20 | 4:30.60 | 61370 | 81679
5 | 18:09.05 | 4:15.17 | 81680 | 100821
6 | 22:24.22 | 6:20.03 | 100822 | 129324
7 | 28:44.25 | 4:46.70 | 129325 | 150844


Track 1

Filename S:\Encoding\wav\01 - Beginning,Lucifer's Hammer.wav

Pre-gap length 0:00:02.00

Peak level 97.7 %
Track quality 100.0 %
Test CRC 0F90D8F4
Copy CRC 0F90D8F4
Accurately ripped (confidence 4) [77DD1701]
Copy OK

Track 2

Filename S:\Encoding\wav\02 - Lost And Lonely Days.wav

Pre-gap length 0:00:01.05

Peak level 97.7 %
Track quality 100.0 %
Test CRC 8A9D274A
Copy CRC 8A9D274A
Accurately ripped (confidence 4) [9D868D80]
Copy OK

Track 3

Filename S:\Encoding\wav\03 - Black Mass.wav

Pre-gap length 0:00:02.00

Peak level 97.7 %
Track quality 100.0 %
Test CRC 5EE7CBB4
Copy CRC 5EE7CBB4
Accurately ripped (confidence 4) [7F0DC650]
Copy OK

Track 4

Filename S:\Encoding\wav\04 - Soliloquy.wav

Pre-gap length 0:00:02.55

Peak level 97.7 %
Track quality 100.0 %
Test CRC 369ABAF7
Copy CRC 369ABAF7
Accurately ripped (confidence 4) [770EFA51]
Copy OK

Track 5

Filename S:\Encoding\wav\05 - Aliens.wav

Pre-gap length 0:00:01.13

Peak level 97.7 %
Track quality 100.0 %
Test CRC DA0BA920
Copy CRC DA0BA920
Accurately ripped (confidence 4) [2CFEA723]
Copy OK

Track 6

Filename S:\Encoding\wav\06 - MCMLXXXIV,Child Of The Damned.wav

Pre-gap length 0:00:02.02

Peak level 97.7 %
Track quality 100.0 %
Test CRC 49429991
Copy CRC 49429991
Accurately ripped (confidence 4) [96E7E693]
Copy OK

Track 7

Filename S:\Encoding\wav\07 - Deliver Us From Evil.wav

Pre-gap length 0:00:01.30

Peak level 97.7 %
Track quality 100.0 %
Test CRC 5E9F0C9C
Copy CRC 5E9F0C9C
Accurately ripped (confidence 4) [4E412CD6]
Copy OK


All tracks accurately ripped

No errors occurred

End of status report


===================================DOWNLOAD======================================== http://www.megaupload.com/?d=LXZKMMVP
Warlord-And The Cannons Of Destruction Have Begun.rar

_________________
Image
Image


Top
 Profile  
 
 
PostPosted: 21 Nov 2009 
5-speed satisfactor
User avatar
Joined: 16 Feb 2009
Posts: 3622
Lоcаtion: New York, USA
Age: 40
Name: Leonid
Редкий альбом. У меня есть еще первопресс The Best of Warlord на Metal Blade/Enigma, если кому надо.

_________________
Death rules! Metal to all who oppose!


Top
 Profile  
 
 
PostPosted: 21 Nov 2009 
А может смените мне статус?..
User avatar
Joined: 24 Dec 2008
Posts: 621
Age: 44
Name: Дмитрий
Спасибо!


Top
 Profile  
 
 
PostPosted: 21 Nov 2009 
HAMMER
User avatar
Joined: 16 May 2009
Posts: 5455
Lоcаtion: Тверь
Age: 45
Name: Александр
Большое спасибо.


Top
 Profile E-mail  
 
 
PostPosted: 21 Nov 2009 
Хиппей (support team)
User avatar
Joined: 30 Jul 2007
Posts: 108243
Lоcаtion: Киев (Kyiv, UA)
Age: 45
Name: Andrey
:true:

_________________


Top
 Profile E-mail  
 
 
PostPosted: 22 Nov 2009 
Труъ
User avatar
Joined: 14 Jul 2009
Posts: 158
Lоcаtion: Hell Is Here
Age: 48
Name: Adriano
Thank You !!! :thanx:


Top
 Profile E-mail  
 
 
PostPosted: 22 Nov 2009 
А может смените мне статус?..
User avatar
Joined: 01 Jun 2008
Posts: 559
Lоcаtion: Россия
Age: 42
Name: Вадик
Спасибо!


Top
 Profile  
 
 
PostPosted: 22 Nov 2009 
Почётный металлург
User avatar
Joined: 15 Sep 2007
Posts: 4357
Lоcаtion: Хабаровск
Age: 58
Name: чуть выше
:thanx:

_________________
Коль будешь людей ты ослами честить,
тебе человеком меж них не прослыть!
(Саади, персидский поэт, 13в.)


Top
 Profile  
 
 
PostPosted: 22 Nov 2009 
семерых одним ударом
Joined: 18 Aug 2007
Posts: 3798
Lоcаtion: Владивосток
Age: 43
Name: Николай Николаевич
клевая группа, спасибо за качество!!


Top
 Profile  
 
 
PostPosted: 28 Jan 2014 
\m/ 80 см сала \m/
User avatar
Joined: 12 Mar 2012
Posts: 2589
Age: 25
Name: Nick
Мужики, кто-нибудь могёт перезалить? С рутрекера не могу утянуть, пишет, мол еще 4 дня неделю осталось ждать :shok:

_________________
1990 AUROPHON BRAINSTORM (Germany) - lossless
1994 MAUSOLEUM CLASSIX (Belgium-Germany) - lossless
1998 VA - GRIM HARVEST - Complete Metal Massacre Volumes I-XII


Top
 Profile  
 
 
PostPosted: 28 Jan 2014 
Partisanen - nicht kapitulieren!!
User avatar
Joined: 25 Dec 2011
Posts: 6755
Lоcаtion: партизанские леса
Age: 46
Name: Владимир
Мужики, кто-нибудь могёт перезалить? С рутрекера не могу утянуть, пишет, мол еще 4 дня неделю осталось ждать :shok:

щас с ваты попробую выдернуть, тогда перезалью

_________________
One more beer and Heavy Metal and I'm just fine!
старовер, куле... слово "блин" - до сих пор через Ъ говорю


Top
 Profile E-mail  
 
 
PostPosted: 28 Jan 2014 
Partisanen - nicht kapitulieren!!
User avatar
Joined: 25 Dec 2011
Posts: 6755
Lоcаtion: партизанские леса
Age: 46
Name: Владимир
Warlord - And The Cannons Of Destruction Have Begun flac (tracks+cue+log)
rusfolder : mail.ru

_________________
One more beer and Heavy Metal and I'm just fine!
старовер, куле... слово "блин" - до сих пор через Ъ говорю


Top
 Profile E-mail  
 
 
PostPosted: 29 Jan 2014 
\m/ 80 см сала \m/
User avatar
Joined: 12 Mar 2012
Posts: 2589
Age: 25
Name: Nick
Спасибо большое :thanx:

_________________
1990 AUROPHON BRAINSTORM (Germany) - lossless
1994 MAUSOLEUM CLASSIX (Belgium-Germany) - lossless
1998 VA - GRIM HARVEST - Complete Metal Massacre Volumes I-XII


Top
 Profile  
 
 
PostPosted: 01 Feb 2014 
Хиппей (support team)
User avatar
Joined: 30 Jul 2007
Posts: 108243
Lоcаtion: Киев (Kyiv, UA)
Age: 45
Name: Andrey
:thanx:

mirrror: Narod l M-Cloud

_________________


Top
 Profile E-mail  
 
 
PostPosted: 01 Feb 2014 
Дежурный по КУПу
User avatar
Joined: 17 Aug 2007
Posts: 5869
Age: 50
Name: Ге
:thanx:

_________________
http://jp-mania.ru/
http://jp-tourdates.ucoz.ru/


Top
 Profile  
 
Display posts from previous:  Sort by  
Post new topic Reply to topic  [ 15 posts ] 

All times are UTC + 3 hours


Who is online

Users browsing this forum: No registered users and 2 guests


You cannot post new topics in this forum
You cannot reply to topics in this forum
You cannot edit your posts in this forum
You cannot delete your posts in this forum
You cannot post attachments in this forum

Search for:
Яндекс.Метрика
Powered by phpBB © 2000, 2002, 2005, 2007 phpBB Group