\m/ 80's metal \m/

Информационно-аналитический форум "80 см пыли" (In Search We Trust) "У нас никто никуда не спешит"
Me For You - http://me-4u.com
It is currently 21 Nov 2018

All times are UTC + 3 hours

Spoiler
Chat - temporary registration for foreign users (please leave your application here)







Post new topic Reply to topic  [ 10 posts ] 
Author Message
 
PostPosted: 08 Nov 2009 
ыыыы
User avatar
Joined: 17 May 2009
Posts: 952
Lоcаtion: Пушкино, МО
Age: 40
Name: Дмитрий
Whitesnake - 1987 Versions Japan ONLY CD 1988


Image


WHITESNAKE 1987 Versions (Rare 1987 Japanese 5-track CD EP, featuring Here I Go Again - New Version, Remixes of Standing In The Shadows and Need Your Love So Bad plus the previously unreleased Looking For Love and You're Gonna Break My Heart Again. Picture sleeve with lyrics, bonus fold-out Whitesnake family tree 23DP-5233).

Wiki: 1987 Versions is an EP by British hard rock band Whitesnake. The EP was released in 1987 and features remixes of old Whitesnake hits, such as; "Here I Go Again", "Standing in the Shadows", and "Need Your Love So Bad". The EP also contains the tracks; "Looking for Love" and "You're Gonna Break My Heart Again", which weren't released in North America until 1994. The EP was only released in Japan.

Recording line-up:

David Coverdale - Vocals
John Sykes - Guitar
Neil Murray - Bass guitar
Aynsley Dunbar - drums

Songs:

1. Here I Go Again (New Version) 03:57
2. Standing in the Shadows (Remix) 03:55
3. Looking for Love (Unreleased) 06:33
4. You're Gonna Break My Heart Again (Unreleased) 04:13
5. Need Your Love So Bad (Remix) 03:18
====================
Playing time: 21:56

Released: Japan 1988 CBS/SONY RECORDS/THE DAVID GEFFEN COMPANY
Cat #: 23DP 5233
Matrix: 23DP-5233 11A6

Narod
MEGAUPLOAD

Log
EAC extraction logfile from 8. November 2009, 15:32 for CD
Whitesnake / 1987 Versions [23DP 5233]

Used drive : ASUS DRW-2014S1 Adapter: 0 ID: 0
Read mode : Secure with NO C2, accurate stream, disable cache
Read offset correction : 6
Overread into Lead-In and Lead-Out : No

Used output format : Internal WAV Routines
44.100 Hz; 16 Bit; Stereo

Other options :
Fill up missing offset samples with silence : Yes
Delete leading and trailing silent blocks : No
Installed external ASPI interface


Range status and errors
Selected range
Filename Y:\Музыка\Whitesnake\1988 Versions\Whitesnake - 1987 Versions [23DP 5233].wav

Peak level 83.5 %
Range quality 100.0 %
CRC 9997A8B5
Copy OK

No errors occured

End of status report

------------------------------------------------------------

EAC extraction logfile from 8. November 2009, 15:32 for CD
Whitesnake / 1987 Versions [23DP 5233]

Used drive : ASUS DRW-2014S1 Adapter: 0 ID: 0
Read mode : Secure with NO C2, accurate stream, disable cache
Read offset correction : 6
Overread into Lead-In and Lead-Out : No

Used output format : Internal WAV Routines
44.100 Hz; 16 Bit; Stereo

Other options :
Fill up missing offset samples with silence : Yes
Delete leading and trailing silent blocks : No
Installed external ASPI interface


Range status and errors
Selected range
Filename Y:\Музыка\Whitesnake\1988 Versions\Whitesnake - 1987 Versions [23DP 5233].wav

Peak level 83.5 %
Range quality 100.0 %
CRC 9997A8B5
Copy OK

No errors occured

End of status report


Куй рабочий
REM GENRE Rock
REM DATE 1987
REM DISCID 3B052605
REM COMMENT "ExactAudioCopy v0.95b4"
PERFORMER "Whitesnake"
TITLE "1987 Versions [23DP 5233]"
FILE "Whitesnake - 1987 Versions [23DP 5233].flac" WAVE
TRACK 01 AUDIO
TITLE "Here I Go Again (New Version)"
PERFORMER "Whitesnake"
INDEX 01 00:00:00
TRACK 02 AUDIO
TITLE "Standing In The Shadows (Remix)"
PERFORMER "Whitesnake"
INDEX 00 03:55:27
INDEX 01 03:57:27
TRACK 03 AUDIO
TITLE "Looking For Love (Unreleased)"
PERFORMER "Whitesnake"
INDEX 00 07:51:02
INDEX 01 07:53:02
TRACK 04 AUDIO
TITLE "You're Gonna Break My Heart (Unreleased)"
PERFORMER "Whitesnake"
INDEX 00 14:24:32
INDEX 01 14:26:32
TRACK 05 AUDIO
TITLE "Need Your Love So Bad (Remix)"
PERFORMER "Whitesnake"
INDEX 00 18:37:70
INDEX 01 18:39:70

_________________
Витасу до Даймонда как Алсу до Руссоса | При переразмещении - спрашивать разрешение!!


Last edited by iezuit on 12 Nov 2009, edited 3 times in total.

Top
 Profile  
 
 
PostPosted: 08 Nov 2009 
Дежурный по КУПу
User avatar
Joined: 17 Aug 2007
Posts: 5869
Age: 50
Name: Ге
Спасибо :thanx: :thanx: :thanx:

_________________
http://jp-mania.ru/
http://jp-tourdates.ucoz.ru/


Top
 Profile  
 
 
PostPosted: 08 Nov 2009 
HAMMER
User avatar
Joined: 16 May 2009
Posts: 5456
Lоcаtion: Тверь
Age: 45
Name: Александр
:dance:


Top
 Profile E-mail  
 
 
PostPosted: 09 Nov 2009 
Хиппей (support team)
User avatar
Joined: 30 Jul 2007
Posts: 108255
Lоcаtion: Киев (Kyiv, UA)
Age: 45
Name: Andrey
:thanx:

_________________


Top
 Profile E-mail  
 
 
PostPosted: 09 Nov 2009 
хард н хэвщик (support team)
User avatar
Joined: 02 Jun 2008
Posts: 16880
Lоcаtion: Н.Новгород
Age: 31
Name: Артем
спасибо :true:


Top
 Profile  
 
 
PostPosted: 07 Apr 2010 
Анатолий
User avatar
Joined: 18 Oct 2008
Posts: 3198
Lоcаtion: Армавир
Age: 41
Name: Анатолий
iezuit

Спасибо большое! :thanx:

P.S. Мда... коллекция джапанов впечатляет... ничего не скажешь...


Top
 Profile E-mail  
 
 
PostPosted: 12 Apr 2010 
Зарегился вот...
User avatar
Joined: 17 Dec 2009
Posts: 2
Lоcаtion: Mississauga, Ontario, Canada
Age: 48
Name: Chris
Thanks for the share.

Cheers!!!

_________________
Styx and Stones may break my bones, but "More Than Words" will never hurt me.
Image


Top
 Profile E-mail  
 
 
PostPosted: 06 Jul 2010 
ыыыы
User avatar
Joined: 17 May 2009
Posts: 952
Lоcаtion: Пушкино, МО
Age: 40
Name: Дмитрий
Первое издание:

Image Image Image

_________________
Витасу до Даймонда как Алсу до Руссоса | При переразмещении - спрашивать разрешение!!


Top
 Profile  
 
 
PostPosted: 08 Jul 2010 
Персональный статус
Joined: 14 May 2010
Posts: 236
Age: 37
Name: Денис
Дмитрий, а они с одной матрицы (87 и 88)?


Top
 Profile  
 
 
PostPosted: 08 Jul 2010 
ыыыы
User avatar
Joined: 17 May 2009
Posts: 952
Lоcаtion: Пушкино, МО
Age: 40
Name: Дмитрий
с разных конечно - заметно невооруженным взглядом
Image Image
Судя по аналогии с Вайтснэйком 84- CRC может быть отлична. Проверить не могу- диск продан))

_________________
Витасу до Даймонда как Алсу до Руссоса | При переразмещении - спрашивать разрешение!!


Top
 Profile  
 
Display posts from previous:  Sort by  
Post new topic Reply to topic  [ 10 posts ] 

All times are UTC + 3 hours


Who is online

Users browsing this forum: No registered users and 3 guests


You cannot post new topics in this forum
You cannot reply to topics in this forum
You cannot edit your posts in this forum
You cannot delete your posts in this forum
You cannot post attachments in this forum

Search for:
Яндекс.Метрика
Powered by phpBB © 2000, 2002, 2005, 2007 phpBB Group