\m/ 80's metal \m/

Информационно-аналитический форум "80 см пыли" (In Search We Trust) "У нас никто никуда не спешит"
Me For You - http://me-4u.com
It is currently 21 Nov 2018

All times are UTC + 3 hours

Spoiler
Chat - temporary registration for foreign users (please leave your application here)







Post new topic Reply to topic  [ 6 posts ] 
Author Message
 
PostPosted: 15 Oct 2009 
Генеральный thrasher
User avatar
Joined: 03 Oct 2008
Posts: 3510
Lоcаtion: Ханты-Мансийский АО
Age: 43
Name: Сергей
Image

Year: 1990 (2009)
Country: Poland
Style: Thrash Metal
Format: Flac+Cue+Log
Size: 470Mb

Line-Up:
Jacky - vocals
Mankover - lead guitar,back vocals
Jeff - bass,back vocals
Popcorn - lead guitar,back vocals
Tommy G. - drums

Tracklist:
1 Manifestants 04:19
2 Pain 04:07
3 Black'N'Whites 04:06
4 Foxes 03:17
5 Waiting for Sense 04:37
6 Desert 04:51
7 Sickened Nation 04:22
8 Nasty - Ment 06:05
9 Survive 04:31
10 Weakness 03:44
Bonus tracks:
11 S-Shop 02:45
12 It's Only Vodka 06:34
13 Zboczeńcy 03:50
14 Bezdomne Dzieci 04:18
15 Zniszczyć Mafię 04:43

Image

Cue
REM GENRE "Thrash Metal"
REM DATE 1990
REM DISCID CE0F890F
REM COMMENT "ExactAudioCopy v0.99pb4"
PERFORMER "Wolf Spider"
TITLE "Kingdom Of Paranoia"
FILE "Wolf Spider - Kingdom Of Paranoia.flac" WAVE
TRACK 01 AUDIO
TITLE "Manifestants"
PERFORMER "Wolf Spider"
INDEX 01 00:00:00
TRACK 02 AUDIO
TITLE "Pain"
PERFORMER "Wolf Spider"
INDEX 00 04:17:62
INDEX 01 04:19:62
TRACK 03 AUDIO
TITLE "Black 'n' Whites"
PERFORMER "Wolf Spider"
INDEX 00 08:25:34
INDEX 01 08:27:34
TRACK 04 AUDIO
TITLE "Foxes"
PERFORMER "Wolf Spider"
INDEX 00 12:32:28
INDEX 01 12:34:28
TRACK 05 AUDIO
TITLE "Waiting For Sense"
PERFORMER "Wolf Spider"
INDEX 00 15:50:11
INDEX 01 15:52:11
TRACK 06 AUDIO
TITLE "Desert"
PERFORMER "Wolf Spider"
INDEX 00 20:27:12
INDEX 01 20:29:12
TRACK 07 AUDIO
TITLE "Sickened Nation"
PERFORMER "Wolf Spider"
INDEX 00 25:19:11
INDEX 01 25:21:11
TRACK 08 AUDIO
TITLE "Nasty - Ment"
PERFORMER "Wolf Spider"
INDEX 00 29:41:62
INDEX 01 29:43:62
TRACK 09 AUDIO
TITLE "Survive"
PERFORMER "Wolf Spider"
INDEX 00 35:47:21
INDEX 01 35:49:20
TRACK 10 AUDIO
TITLE "Weakness"
PERFORMER "Wolf Spider"
INDEX 00 40:18:40
INDEX 01 40:20:39
TRACK 11 AUDIO
TITLE "S-Shop(Bonus)"
PERFORMER "Wolf Spider"
INDEX 00 44:03:24
INDEX 01 44:05:24
TRACK 12 AUDIO
TITLE "It's Only Vodka(Bonus)"
PERFORMER "Wolf Spider"
INDEX 00 46:49:07
INDEX 01 46:51:07
TRACK 13 AUDIO
TITLE "Zboczency(Bonus)"
PERFORMER "Wolf Spider"
INDEX 00 53:23:55
INDEX 01 53:25:55
TRACK 14 AUDIO
TITLE "Bezdomne Dzieci(Bonus)"
PERFORMER "Wolf Spider"
INDEX 00 57:14:45
INDEX 01 57:16:45
TRACK 15 AUDIO
TITLE "Zniszczyc Mafie(Bonus)"
PERFORMER "Wolf Spider"
INDEX 00 61:32:57
INDEX 01 61:34:55


Log
Exact Audio Copy V0.99 prebeta 4 from 23. January 2008

Отчёт EAC об извлечении, выполненном 15. октября 2009, 11:04

Wolf Spider / Kingdom Of Paranoia

Дисковод: ATAPI DVD A DH20A4P Adapter: 0 ID: 1

Режим чтения : Достоверность
Использование точного потока : Да
Отключение кэша аудио : Да
Использование указателей C2 : Нет

Коррекция смещения при чтении : 6
Способность читать области Lead-in и Lead-out : Нет
Заполнение пропущенных сэмплов тишиной : Да
Удаление блоков с тишиной в начале и конце : Нет
При вычислениях CRC использовались нулевые сэмплы : Нет
Интерфейс : Установленный внешний ASPI-интерфейс

Выходной формат : Пользовательский кодировщик
Выбранный битрейт : 768 kBit/s
Качество : Высокий
Добавление ID3-тэга : Нет
Утилита сжатия : C:\Program Files\Exact Audio Copy\FLAC\FLAC.EXE
Дополнительные параметры : -6 -V -T "ARTIST=%a" -T "TITLE=%t" -T "ALBUM=%g" -T "DATE=%y" -T "TRACKNUMBER=%n" -T "GENRE=%m" -T "COMMENT=%e" %s -o %d


TOC извлечённого CD

Трек | Старт | Длительность | Начальный сектор | Конечный сектор
---------------------------------------------------------------------
1 | 0:00.00 | 4:19.62 | 0 | 19486
2 | 4:19.62 | 4:07.47 | 19487 | 38058
3 | 8:27.34 | 4:06.69 | 38059 | 56577
4 | 12:34.28 | 3:17.58 | 56578 | 71410
5 | 15:52.11 | 4:37.01 | 71411 | 92186
6 | 20:29.12 | 4:51.74 | 92187 | 114085
7 | 25:21.11 | 4:22.51 | 114086 | 133786
8 | 29:43.62 | 6:05.33 | 133787 | 161194
9 | 35:49.20 | 4:31.19 | 161195 | 181538
10 | 40:20.39 | 3:44.60 | 181539 | 198398
11 | 44:05.24 | 2:45.58 | 198399 | 210831
12 | 46:51.07 | 6:34.48 | 210832 | 240429
13 | 53:25.55 | 3:50.65 | 240430 | 257744
14 | 57:16.45 | 4:18.10 | 257745 | 277104
15 | 61:34.55 | 4:43.02 | 277105 | 298331


Характеристики диапазона извлечения и сообщения об ошибках

Выбранный диапазон

Имя файла F:\Лоси\Wolf Spider - Kingdom Of Paranoia.wav

Пиковый уровень 97.7 %
Качество диапазона 100.0 %
CRC копии 12D261F1
Копирование... OK

Ошибок не произошло


AccurateRip: сводка

Трек 1 нет в базе данных
Трек 2 нет в базе данных
Трек 3 нет в базе данных
Трек 4 нет в базе данных
Трек 5 нет в базе данных
Трек 6 нет в базе данных
Трек 7 нет в базе данных
Трек 8 нет в базе данных
Трек 9 нет в базе данных
Трек 10 нет в базе данных
Трек 11 нет в базе данных
Трек 12 нет в базе данных
Трек 13 нет в базе данных
Трек 14 нет в базе данных
Трек 15 нет в базе данных

Ни одного трека нет в базе AccurateRip

Конец отчёта


Part 1
Part 2


Top
 Profile  
 
 
PostPosted: 15 Oct 2009 
Хиппей (support team)
User avatar
Joined: 30 Jul 2007
Posts: 108243
Lоcаtion: Киев (Kyiv, UA)
Age: 45
Name: Andrey
Красота! :thanx:

_________________


Top
 Profile E-mail  
 
 
PostPosted: 15 Oct 2009 
Прокъмитолист
User avatar
Joined: 12 Aug 2007
Posts: 6504
Lоcаtion: Санктъ-Петербуркъ
Age: 51
Name: Олекъ
шикарно, спасибо еще раз! :true: :thanx:

_________________
прокъметол - это музыко, от которово есть прок (ы)


Top
 Profile  
 
 
PostPosted: 16 Oct 2009 
Metal Collector
User avatar
Joined: 16 Nov 2008
Posts: 1230
Lоcаtion: Химки
Age: 35
Name: Андрей
Большое спасибо!


Top
 Profile E-mail  
 
 
PostPosted: 16 Oct 2009 
5cm
User avatar
Joined: 01 Mar 2009
Posts: 61
Name: Сергей
СПАСИБО !!!


Top
 Profile  
 
 
PostPosted: 11 Aug 2011 
ТрэшЭрос
User avatar
Joined: 18 Jul 2011
Posts: 2300
Lоcаtion: Гулькевичи
Age: 43
Name: Александр
thorbeorn, спасибо! :true:

_________________
Thrash no trash!!!


Top
 Profile E-mail  
 
Display posts from previous:  Sort by  
Post new topic Reply to topic  [ 6 posts ] 

All times are UTC + 3 hours


Who is online

Users browsing this forum: No registered users and 4 guests


You cannot post new topics in this forum
You cannot reply to topics in this forum
You cannot edit your posts in this forum
You cannot delete your posts in this forum
You cannot post attachments in this forum

Search for:
Яндекс.Метрика
Powered by phpBB © 2000, 2002, 2005, 2007 phpBB Group