\m/ 80's metal \m/

Информационно-аналитический форум "80 см пыли" (In Search We Trust) "У нас никто никуда не спешит"
Me For You - http://me-4u.com
It is currently 10 Dec 2018

All times are UTC + 3 hours

Spoiler
Chat - temporary registration for foreign users (please leave your application here)







Post new topic Reply to topic  [ 10 posts ] 
Author Message
 
PostPosted: 14 Oct 2009 
Генеральный thrasher
User avatar
Joined: 03 Oct 2008
Posts: 3530
Lоcаtion: Ханты-Мансийский АО
Age: 43
Name: Сергей
Image

Year: 1991 (2009 Re-Issue)
Country: Poland
Style: Thrash Metal
Format: Flac+Cue+Log
Size: 504Mb


Tracklist:
1. Blind Faith 04:55
2. Liberated Woman 05:06
3. Inclined 03:30
4. My Home 04:23
5. Drifting in the Sullen Sea 05:22
6. King of the Animals 04:42
7. Freedom 04:45
8. Black and White (Part Two) 04:21
9. Enterprising Man 02:59
10. Orphanage 05:01
11. Mustapha 02:21
Bonus tracks:
12.Terrorysci 06:00
13.Plaga 05:21
14.Gdzie Twoja Osobowosc 03:17
15.Prog Swiadomosci 07:10

Image

Cue
REM GENRE "Progressive Thrash Metal"
REM DATE 1991
REM DISCID D3105D0F
REM COMMENT "ExactAudioCopy v0.99pb4"
PERFORMER "Wolf Spider"
TITLE "Drifting In The Sullen Sea"
FILE "Wolf Spider - Drifting In The Sullen Sea.flac" WAVE
TRACK 01 AUDIO
TITLE "Blind Faith"
PERFORMER "Wolf Spider"
INDEX 01 00:00:00
TRACK 02 AUDIO
TITLE "Liberated Woman"
PERFORMER "Wolf Spider"
INDEX 00 04:54:32
INDEX 01 04:56:32
TRACK 03 AUDIO
TITLE "Inclined"
PERFORMER "Wolf Spider"
INDEX 00 10:02:27
INDEX 01 10:04:26
TRACK 04 AUDIO
TITLE "My Home"
PERFORMER "Wolf Spider"
INDEX 00 13:33:32
INDEX 01 13:35:32
TRACK 05 AUDIO
TITLE "Drifting In The Sullen Sea"
PERFORMER "Wolf Spider"
INDEX 01 17:58:40
TRACK 06 AUDIO
TITLE "King Of The Animals"
PERFORMER "Wolf Spider"
INDEX 00 23:18:18
INDEX 01 23:20:18
TRACK 07 AUDIO
TITLE "Freedom"
PERFORMER "Wolf Spider"
INDEX 00 28:00:54
INDEX 01 28:02:54
TRACK 08 AUDIO
TITLE "Black And White (Part Two)"
PERFORMER "Wolf Spider"
INDEX 00 32:56:55
INDEX 01 32:58:54
TRACK 09 AUDIO
TITLE "Enterprising Man"
PERFORMER "Wolf Spider"
INDEX 00 37:18:56
INDEX 01 37:20:55
TRACK 10 AUDIO
TITLE "Orphanage"
PERFORMER "Wolf Spider"
INDEX 00 40:18:69
INDEX 01 40:20:69
TRACK 11 AUDIO
TITLE "Mustapha"
PERFORMER "Wolf Spider"
INDEX 00 45:21:74
INDEX 01 45:23:74
TRACK 12 AUDIO
TITLE "Terrorysci"
PERFORMER "Wolf Spider"
INDEX 00 47:46:53
INDEX 01 47:48:53
TRACK 13 AUDIO
TITLE "Plaga"
PERFORMER "Wolf Spider"
INDEX 00 53:49:31
INDEX 01 53:51:31
TRACK 14 AUDIO
TITLE "Gdzie Twoja Osobowosc"
PERFORMER "Wolf Spider"
INDEX 00 59:15:00
INDEX 01 59:16:74
TRACK 15 AUDIO
TITLE "Prog Sqiadomosci"
PERFORMER "Wolf Spider"
INDEX 00 62:35:18
INDEX 01 62:37:18


Log
Exact Audio Copy V0.99 prebeta 4 from 23. January 2008

Отчёт EAC об извлечении, выполненном 14. октября 2009, 11:34

Wolf Spider / Drifting In The Sullen Sea

Дисковод: ATAPI DVD A DH20A4P Adapter: 0 ID: 1

Режим чтения : Достоверность
Использование точного потока : Да
Отключение кэша аудио : Да
Использование указателей C2 : Нет

Коррекция смещения при чтении : 6
Способность читать области Lead-in и Lead-out : Нет
Заполнение пропущенных сэмплов тишиной : Да
Удаление блоков с тишиной в начале и конце : Нет
При вычислениях CRC использовались нулевые сэмплы : Нет
Интерфейс : Установленный внешний ASPI-интерфейс

Выходной формат : Пользовательский кодировщик
Выбранный битрейт : 768 kBit/s
Качество : Высокий
Добавление ID3-тэга : Нет
Утилита сжатия : C:\Program Files\Exact Audio Copy\FLAC\FLAC.EXE
Дополнительные параметры : -6 -V -T "ARTIST=%a" -T "TITLE=%t" -T "ALBUM=%g" -T "DATE=%y" -T "TRACKNUMBER=%n" -T "GENRE=%m" -T "COMMENT=%e" %s -o %d


TOC извлечённого CD

Трек | Старт | Длительность | Начальный сектор | Конечный сектор
---------------------------------------------------------------------
1 | 0:00.00 | 4:56.32 | 0 | 22231
2 | 4:56.32 | 5:07.69 | 22232 | 45325
3 | 10:04.26 | 3:31.06 | 45326 | 61156
4 | 13:35.32 | 4:23.08 | 61157 | 80889
5 | 17:58.40 | 5:21.53 | 80890 | 105017
6 | 23:20.18 | 4:42.36 | 105018 | 126203
7 | 28:02.54 | 4:56.00 | 126204 | 148403
8 | 32:58.54 | 4:22.01 | 148404 | 168054
9 | 37:20.55 | 3:00.14 | 168055 | 181568
10 | 40:20.69 | 5:03.05 | 181569 | 204298
11 | 45:23.74 | 2:24.54 | 204299 | 215152
12 | 47:48.53 | 6:02.53 | 215153 | 242355
13 | 53:51.31 | 5:25.43 | 242356 | 266773
14 | 59:16.74 | 3:20.19 | 266774 | 281792
15 | 62:37.18 | 7:12.30 | 281793 | 314222


Характеристики диапазона извлечения и сообщения об ошибках

Выбранный диапазон

Имя файла F:\Лоси\Wolf Spider - Drifting In The Sullen Sea.wav

Пиковый уровень 98.8 %
Качество диапазона 99.9 %
CRC копии EBEA52B5
Копирование... OK

Ошибок не произошло


AccurateRip: сводка

Трек 1 нет в базе данных
Трек 2 нет в базе данных
Трек 3 нет в базе данных
Трек 4 нет в базе данных
Трек 5 нет в базе данных
Трек 6 нет в базе данных
Трек 7 нет в базе данных
Трек 8 нет в базе данных
Трек 9 нет в базе данных
Трек 10 нет в базе данных
Трек 11 нет в базе данных
Трек 12 нет в базе данных
Трек 13 нет в базе данных
Трек 14 нет в базе данных
Трек 15 нет в базе данных

Ни одного трека нет в базе AccurateRip

Конец отчёта


Part 1
Part 2


Top
 Profile  
 
 
PostPosted: 14 Oct 2009 
Хиппей (support team)
User avatar
Joined: 30 Jul 2007
Posts: 108779
Lоcаtion: Киев (Kyiv, UA)
Age: 45
Name: Andrey
:thanx:

_________________


Top
 Profile E-mail  
 
 
PostPosted: 14 Oct 2009 
Прокъмитолист
User avatar
Joined: 12 Aug 2007
Posts: 6512
Lоcаtion: Санктъ-Петербуркъ
Age: 51
Name: Олекъ
огромное спасибо за лося, Сергей! :thanx:

_________________
прокъметол - это музыко, от которово есть прок (ы)


Top
 Profile  
 
 
PostPosted: 14 Oct 2009 
Генеральный thrasher
User avatar
Joined: 03 Oct 2008
Posts: 3530
Lоcаtion: Ханты-Мансийский АО
Age: 43
Name: Сергей
"Kingdom Of Paranoia" завтра сделаю.


Top
 Profile  
 
 
PostPosted: 14 Oct 2009 
дядя Миша
User avatar
Joined: 17 Oct 2008
Posts: 3078
Lоcаtion: USSR
Age: 56
Name: Khy
Молодец, Серый! Так держать!!!!!! :true:


Top
 Profile  
 
 
PostPosted: 15 Oct 2009 
Metal Collector
User avatar
Joined: 16 Nov 2008
Posts: 1230
Lоcаtion: Химки
Age: 35
Name: Андрей
Спасибочки большое!


Top
 Profile E-mail  
 
 
PostPosted: 15 Oct 2009 
Metal Collector
User avatar
Joined: 16 Nov 2008
Posts: 1230
Lоcаtion: Химки
Age: 35
Name: Андрей
Дурацкий наверно вопрос задам - поясните мне плиз кто в бонусах поёт, а то из-за польского мне там почему-то Шпигель всё время слышится, первый вокалист, хотя это и очень сомнительно.


Top
 Profile E-mail  
 
 
PostPosted: 15 Oct 2009 
Генеральный thrasher
User avatar
Joined: 03 Oct 2008
Posts: 3530
Lоcаtion: Ханты-Мансийский АО
Age: 43
Name: Сергей
Андрей,к сожалению такой инфы в буклете нет.


Top
 Profile  
 
 
PostPosted: 16 Oct 2009 
Metal Collector
User avatar
Joined: 16 Nov 2008
Posts: 1230
Lоcаtion: Химки
Age: 35
Name: Андрей
Жаль :( А на слух кто что думает?


Top
 Profile E-mail  
 
 
PostPosted: 16 Oct 2009 
Хиппей (support team)
User avatar
Joined: 30 Jul 2007
Posts: 108779
Lоcаtion: Киев (Kyiv, UA)
Age: 45
Name: Andrey
На слух еще не качали... :oops:

_________________


Top
 Profile E-mail  
 
Display posts from previous:  Sort by  
Post new topic Reply to topic  [ 10 posts ] 

All times are UTC + 3 hours


Who is online

Users browsing this forum: No registered users and 1 guest


You cannot post new topics in this forum
You cannot reply to topics in this forum
You cannot edit your posts in this forum
You cannot delete your posts in this forum
You cannot post attachments in this forum

Search for:
Яндекс.Метрика
Powered by phpBB © 2000, 2002, 2005, 2007 phpBB Group