\m/ 80's metal \m/

Информационно-аналитический форум "80 см пыли" (In Search We Trust) "У нас никто никуда не спешит"
Me For You - http://me-4u.com
It is currently 24 Oct 2018

All times are UTC + 3 hours

Spoiler
Chat - temporary registration for foreign users (please leave your application here)







Post new topic Reply to topic  [ 10 posts ] 
Author Message
 
PostPosted: 12 Sep 2009 
Работнечег
User avatar
Joined: 28 Aug 2007
Posts: 5470
Lоcаtion: г. Москва
Age: 29
Name: Дима
Image

Style: Thrash Metal
Year: 1989
Label: Bleeding Chainsaw Records
Country: Germany
Bitrate: flac + cue + log
Size: 290 Mb


Line-Up:
Olymp a.k.a. Pädde - Vocals
Robby Schmidt - Guitar (Curare, Public Code)
Martin Schlegel - Guitar (Curare, Co:ßmik)
Angus - Bass
Mario - Drums (Curare)


Tracklist:
1. It's Enough 04:45
2. Psychic Warfare 04:03
3. I.O.U 03:45
4. The End Of The Century 04:15
5. Splended Deed 06:15
6. Mirror Never Lies 03:52
7. Pull Down The Wall 05:18
8. Speed Thrashing Kids 02:37
9. Tormmel Bass 00:25
10. Sad Song (Raw Rehearsal Mix) (Bonus)
Total playing time 39:51

CUE
REM GENRE "Thrash Metal"
REM DATE 1989
REM DISCID 8309570A
REM COMMENT "ExactAudioCopy v0.95b4"
PERFORMER "Wicca"
TITLE "Splended Deed (Remastered In 2008)"
FILE "Wicca - Splended Deed (Remastered In 2008).wav" WAVE
TRACK 01 AUDIO
TITLE "It's Enough"
PERFORMER "Wicca"
FLAGS DCP
INDEX 01 00:00:00
TRACK 02 AUDIO
TITLE "I.O.U."
PERFORMER "Wicca"
FLAGS DCP
INDEX 00 04:44:33
INDEX 01 04:46:33
TRACK 03 AUDIO
TITLE "Pull Down The Wall"
PERFORMER "Wicca"
FLAGS DCP
INDEX 00 08:30:70
INDEX 01 08:32:70
TRACK 04 AUDIO
TITLE "Splended Deed"
PERFORMER "Wicca"
FLAGS DCP
INDEX 00 13:50:36
INDEX 01 13:52:36
TRACK 05 AUDIO
TITLE "Mirror Never Lies"
PERFORMER "Wicca"
FLAGS DCP
INDEX 00 20:04:21
INDEX 01 20:06:21
TRACK 06 AUDIO
TITLE "Psychic Warfare"
PERFORMER "Wicca"
FLAGS DCP
INDEX 00 23:57:41
INDEX 01 23:59:41
TRACK 07 AUDIO
TITLE "Speed Thrashing Kids"
PERFORMER "Wicca"
FLAGS DCP
INDEX 00 28:01:70
INDEX 01 28:03:70
TRACK 08 AUDIO
TITLE "The End Of The Century"
PERFORMER "Wicca"


LOG
Отчёт EAC об извлечении, выполненном 15. августа 2009, 18:21 для диска:
Wicca / Splended Deed (Remastered In 2008)

Дисковод: PIONEER DVD-RW DVR-116D Adapter: 0 ID: 0
Режим чтения: Достоверный (C2: нет, Точный поток: да, Отключение кэша: да)
Коррекция смещения при чтении: 96
Способность читать области Lead-in и Lead-out : Нет

Выходной формат: Внутренние WAV-операции
44.100 Гц; 16 бит; стерео

Другие параметры:
Заполнение пропущенных сэмплов тишиной : Да
Удаление блоков с тишиной в начале и конце : Нет
Установленный внешний ASPI-интерфейс


Характеристики диапазона извлечения и сообщения об ошибках
Выбранный диапазон
Имя файла D:\Музыка\Lossless\Wicca - Splended Deed (Remastered In 2008).wav

Пиковый уровень 100.0 %
Качество диапазона 100.0 %
CRC 7FDF8079
Копирование... OK

Ошибок не произошло

Конец отчёта


Spectrum
Image


http://ifolder.ru/13940654
http://ifolder.ru/13940655
http://ifolder.ru/13940656
http://ifolder.ru/13940657

Сканов пока нет, завтра сделаю.Выложу отдельным архивом


Top
 Profile E-mail  
 
 
PostPosted: 12 Sep 2009 
труъ антисионист
User avatar
Joined: 01 Aug 2007
Posts: 4541
Lоcаtion: Откуда и большинство из нас
Age: 37
Name: Дядя Вова
Спасибо! :true:

_________________
Image
Image


Top
 Profile  
 
 
PostPosted: 12 Sep 2009 
Работнечег
User avatar
Joined: 28 Aug 2007
Posts: 5470
Lоcаtion: г. Москва
Age: 29
Name: Дима
Инет смотрю наладился)) Провайдеру по шее надавал? :crazy:


Top
 Profile E-mail  
 
 
PostPosted: 12 Sep 2009 
труъ антисионист
User avatar
Joined: 01 Aug 2007
Posts: 4541
Lоcаtion: Откуда и большинство из нас
Age: 37
Name: Дядя Вова
Просто у провайдера сменились реквизиты, а у меня почему-то ДНС поменялся не стого не с сего, я просто в офис сходил и мне новые настройки дали. :crazy:

_________________
Image
Image


Top
 Profile  
 
 
PostPosted: 14 Sep 2009 
Работнечег
User avatar
Joined: 28 Aug 2007
Posts: 5470
Lоcаtion: г. Москва
Age: 29
Name: Дима
covers


Top
 Profile E-mail  
 
 
PostPosted: 14 Sep 2009 
Хиппей (support team)
User avatar
Joined: 30 Jul 2007
Posts: 107159
Lоcаtion: Киев (Kyiv, UA)
Age: 45
Name: Andrey
Димка, труъъъ :true:

_________________


Top
 Profile E-mail  
 
 
PostPosted: 14 Sep 2009 
Работнечег
User avatar
Joined: 28 Aug 2007
Posts: 5470
Lоcаtion: г. Москва
Age: 29
Name: Дима
Scatterbrain wrote:
Димка, труъъъ :true:

:true:
Винильные шумы правда действительно слышны немного, но всё не так пессимистично как описано на метал-архивах.


Top
 Profile E-mail  
 
 
PostPosted: 03 Dec 2009 
Прокъмитолист
User avatar
Joined: 12 Aug 2007
Posts: 6490
Lоcаtion: Санктъ-Петербуркъ
Age: 51
Name: Олекъ
спасибо, Дим! :thanx:

_________________
прокъметол - это музыко, от которово есть прок (ы)


Top
 Profile  
 
 
PostPosted: 03 Dec 2009 
Работнечег
User avatar
Joined: 28 Aug 2007
Posts: 5470
Lоcаtion: г. Москва
Age: 29
Name: Дима
spiralarch wrote:
спасибо, Дим! :thanx:

Чего-то ты позднова-то очнулся)


Top
 Profile E-mail  
 
 
PostPosted: 03 Dec 2009 
Прокъмитолист
User avatar
Joined: 12 Aug 2007
Posts: 6490
Lоcаtion: Санктъ-Петербуркъ
Age: 51
Name: Олекъ
да все не мог решить: то ли качать, то ли купить... решил скачать для начала :crazy:

_________________
прокъметол - это музыко, от которово есть прок (ы)


Top
 Profile  
 
Display posts from previous:  Sort by  
Post new topic Reply to topic  [ 10 posts ] 

All times are UTC + 3 hours


Who is online

Users browsing this forum: No registered users and 1 guest


You cannot post new topics in this forum
You cannot reply to topics in this forum
You cannot edit your posts in this forum
You cannot delete your posts in this forum
You cannot post attachments in this forum

Search for:
Яндекс.Метрика
Powered by phpBB © 2000, 2002, 2005, 2007 phpBB Group