\m/ 80's metal \m/

Информационно-аналитический форум "80 см пыли" (In Search We Trust) "У нас никто никуда не спешит"
Me For You - http://me-4u.com
It is currently 20 Nov 2018

All times are UTC + 3 hours

Spoiler
Chat - temporary registration for foreign users (please leave your application here)







Post new topic Reply to topic  [ 71 posts ]  Go to page Previous  1, 2, 3, 4
Author Message
 
PostPosted: 19 Jul 2009 
.
Joined: 01 Mar 2009
Posts: 136
Age: 36
Name: .
Image

Year: 1985 (reissue 2008)
Genre: Heavy Metal
Country: Germany
Size: 456 mb

Tracklist:
01. Running Wild
02. Reveal The Lies
03. Monsters
04. Stealthy World
05. Lack Of Power
06. Idols Die Too
07. Metallic Alps
08. 69
09. Metallize

Bonus Demo’84:
10. Reveal the Lies
11. Monsters
12. Some Kind Of Pain
13. Metallize

Bonus Demo’86:
14. Missing In Action
15. Can't Get Enough
16. Fractured Emotion
17. Untitled

Line-up:
Stefan Niebeling – Vocals (Demos)
Mick Wega – Vocals (LP)
Andreas Lorz – Guitar
Stefan Fleischer – Bass
Stefan Arnold – Drums

Image

log
EAC extraction logfile from 19. July 2009, 23:15 for CD
Wallop / Metallic Alps

Used drive : HL-DT-STDVDRAM GSA-H42N Adapter: 0 ID: 0
Read mode : Secure with NO C2, accurate stream, disable cache
Read offset correction : 637
Overread into Lead-In and Lead-Out : No

Used output format : Internal WAV Routines
44.100 Hz; 16 Bit; Stereo

Other options :
Fill up missing offset samples with silence : Yes
Delete leading and trailing silent blocks : No
Native Win32 interface for Win NT & 2000


Range status and errors
Selected range
Filename C:\Music MP3\Wallop - Metallic Alps.wav

Peak level 100.0 %
Range quality 100.0 %
CRC A291BF7E
Copy OK

No errors occured

End of status report


cue
REM DISCID E4103111
REM COMMENT "ExactAudioCopy v0.95b4"
PERFORMER "Wallop"
TITLE "Metallic Alps"
FILE "Wallop - Metallic Alps.wav" WAVE
TRACK 01 AUDIO
TITLE "Running Wild"
PERFORMER "Wallop"
FLAGS DCP
INDEX 01 00:00:00
TRACK 02 AUDIO
TITLE "Reveal The Lies"
PERFORMER "Wallop"
FLAGS DCP
INDEX 00 03:30:14
INDEX 01 03:32:14
TRACK 03 AUDIO
TITLE "Monsters"
PERFORMER "Wallop"
FLAGS DCP
INDEX 00 08:00:12
INDEX 01 08:02:12
TRACK 04 AUDIO
TITLE "Stealthy World"
PERFORMER "Wallop"
FLAGS DCP
INDEX 00 11:44:01
INDEX 01 11:46:01
TRACK 05 AUDIO
TITLE "Lack Of Power"
PERFORMER "Wallop"
FLAGS DCP
INDEX 00 16:14:51
INDEX 01 16:16:51
TRACK 06 AUDIO
TITLE "Idols Die Too"
PERFORMER "Wallop"
FLAGS DCP
INDEX 00 20:09:55
INDEX 01 20:11:55
TRACK 07 AUDIO
TITLE "Metallic Alps"
PERFORMER "Wallop"
FLAGS DCP
INDEX 00 25:39:49
INDEX 01 25:41:49
TRACK 08 AUDIO
TITLE "69"
PERFORMER "Wallop"
FLAGS DCP
INDEX 00 29:34:17
INDEX 01 29:36:16
TRACK 09 AUDIO
TITLE "Metallize"
PERFORMER "Wallop"
FLAGS DCP
INDEX 00 33:37:35
INDEX 01 33:39:35
TRACK 10 AUDIO
TITLE "Reveal the Lies Demo"
PERFORMER "Wallop"
FLAGS DCP
INDEX 00 36:46:30
INDEX 01 36:48:30
TRACK 11 AUDIO
TITLE "Monsters Demo"
PERFORMER "Wallop"
FLAGS DCP
INDEX 00 41:30:22
INDEX 01 41:32:22
TRACK 12 AUDIO
TITLE "Some Kind Of Pain"
PERFORMER "Wallop"
FLAGS DCP
INDEX 00 45:31:34
INDEX 01 45:33:34
TRACK 13 AUDIO
TITLE "Metallize Demo"
PERFORMER "Wallop"
FLAGS DCP
INDEX 00 53:51:23
INDEX 01 53:53:23
TRACK 14 AUDIO
TITLE "Missing In Action"
PERFORMER "Wallop"
FLAGS DCP
INDEX 00 57:23:40
INDEX 01 57:25:40
TRACK 15 AUDIO
TITLE "Can't Get Enough"
PERFORMER "Wallop"
FLAGS DCP
INDEX 00 61:18:34
INDEX 01 61:20:34
TRACK 16 AUDIO
TITLE "Fractured Emotion"
PERFORMER "Wallop"
FLAGS DCP
INDEX 00 65:21:22
INDEX 01 65:23:22
TRACK 17 AUDIO
TITLE "Untitled"
PERFORMER "Wallop"
FLAGS DCP
INDEX 00 68:26:01
INDEX 01 68:28:01



http://ifolder.ru/13173267
http://ifolder.ru/13173269
http://ifolder.ru/13173276
http://ifolder.ru/13173586
http://ifolder.ru/13173277

_________________
Image


Top
 Profile  
 
 
PostPosted: 28 May 2015 
Partisanen - nicht kapitulieren!!
User avatar
Joined: 25 Dec 2011
Posts: 6755
Lоcаtion: партизанские леса
Age: 46
Name: Владимир
attax wrote:
пы-сы: он как-то выложил более 6-ти гигов сканов винила из личной коллекции, там было около 4-х тыщ и больше..., я точно имею весь этот архив, не удалял его, такие вещи очень ценю, только вот не помню куда его дел, попробуй сейчас перелопать эти все HDD

из похожего вот, что вспоминается -
Quote:
Тематика картинок: Hard rock & heavy metal
Разрешение: от 3457х3666 до 7607х3781
Количество: 923 альбомов - 4663 файла.
Формат: JPG

http://rutracker.org/forum/viewtopic.php?t=2723887

и вот это -
http://rutracker.org/forum/viewtopic.php?t=4816210
http://rutracker.org/forum/viewtopic.php?t=4399938

_________________
One more beer and Heavy Metal and I'm just fine!
старовер, куле... слово "блин" - до сих пор через Ъ говорю


Top
 Profile E-mail  
 
 
PostPosted: 27 Aug 2015 
А может смените мне статус?..
Joined: 03 Jul 2009
Posts: 819
Lоcаtion: Serbia
Name: Laki
Could link for scans be reupped, please?


Top
 Profile E-mail  
 
 
PostPosted: 16 Sep 2015 
Работнечег
User avatar
Joined: 28 Aug 2007
Posts: 5555
Lоcаtion: г. Москва
Age: 29
Name: Дима
Could link for scans be reupped, please?


http://rusfolder.com/44225817


Top
 Profile E-mail  
 
 
PostPosted: 16 Sep 2015 
А может смените мне статус?..
Joined: 03 Jul 2009
Posts: 819
Lоcаtion: Serbia
Name: Laki
Could link for scans be reupped, please?


http://rusfolder.com/44225817


Thank for your response!!!


Top
 Profile E-mail  
 
 
PostPosted: 24 Sep 2015 
Я набрал 1000 сообщений!
Joined: 21 Nov 2009
Posts: 1399
Lоcаtion: praga
Age: 48
Name: Сергей
:lloo:


Top
 Profile E-mail  
 
 
PostPosted: 24 Sep 2015 
А может смените мне статус?..
Joined: 03 Jul 2009
Posts: 819
Lоcаtion: Serbia
Name: Laki
:lloo:


I have this on cd, but the sound is not good.These CMC and Karthago cd's are bad.

Wav

Mega


Top
 Profile E-mail  
 
 
PostPosted: 02 Nov 2018 
Я набрал 1000 сообщений!
Joined: 21 Nov 2009
Posts: 1399
Lоcаtion: praga
Age: 48
Name: Сергей
Все думал куда Стефан свалил из ГД,оказывается он раскопал могилу и реанимировал Wallop в оригинальном составе.Правда не известно надолго?6 апреля 2019 анонсирован концерт,в городке возле Франкфурта на Майне.Возможно посещу это действо.К стати может стоит изменить их статус на метал-архиве?


Image


Top
 Profile E-mail  
 
 
PostPosted: 02 Nov 2018 
Рарник и трушник
User avatar
Joined: 25 Dec 2009
Posts: 8421
Lоcаtion: Москва
Age: 53
Name: Виталий
:lob: :lob: :lob: :lob: :lob: :lob: :lob: :lob: :lob: :lob: :lob: :lob: :lob: :lob: :lob:


Top
 Profile  
 
 
PostPosted: 08 Nov 2018 
Хиппей (support team)
User avatar
Joined: 30 Jul 2007
Posts: 108211
Lоcаtion: Киев (Kyiv, UA)
Age: 45
Name: Andrey
:lloo:


I have this on cd, but the sound is not good.These CMC and Karthago cd's are bad.

Wav

Mega

:thanx:

_________________


Top
 Profile E-mail  
 
 
PostPosted: 08 Nov 2018 
Хиппей (support team)
User avatar
Joined: 30 Jul 2007
Posts: 108211
Lоcаtion: Киев (Kyiv, UA)
Age: 45
Name: Andrey
sin2 wrote:
К стати может стоит изменить их статус на метал-архиве?

:thanx: Поменято :kro: https://www.metal-archives.com/bands/Wallop/1579

_________________


Top
 Profile E-mail  
 
 
PostPosted: 08 Nov 2018 
Работнечег
User avatar
Joined: 28 Aug 2007
Posts: 5555
Lоcаtion: г. Москва
Age: 29
Name: Дима
Все думал куда Стефан свалил из ГД,оказывается он раскопал могилу и реанимировал Wallop в оригинальном составе.Правда не известно надолго?6 апреля 2019 анонсирован концерт,в городке возле Франкфурта на Майне.Возможно посещу это действо.К стати может стоит изменить их статус на метал-архиве?


Image

Хороший новости!


Top
 Profile E-mail  
 
Display posts from previous:  Sort by  
Post new topic Reply to topic  [ 71 posts ]  Go to page Previous  1, 2, 3, 4

All times are UTC + 3 hours


Who is online

Users browsing this forum: No registered users and 1 guest


You cannot post new topics in this forum
You cannot reply to topics in this forum
You cannot edit your posts in this forum
You cannot delete your posts in this forum
You cannot post attachments in this forum

Search for:
Яндекс.Метрика
Powered by phpBB © 2000, 2002, 2005, 2007 phpBB Group