\m/ 80's metal \m/

Информационно-аналитический форум "80 см пыли" (In Search We Trust) "У нас никто никуда не спешит"
Me For You - http://me-4u.com
It is currently 13 Nov 2018

All times are UTC + 3 hours

Spoiler
Chat - temporary registration for foreign users (please leave your application here)







Post new topic Reply to topic  [ 15 posts ] 
Author Message
 
PostPosted: 20 Jun 2009 
Хиппей (support team)
User avatar
Joined: 30 Jul 2007
Posts: 107911
Lоcаtion: Киев (Kyiv, UA)
Age: 45
Name: Andrey
Wasteland - 2002 - Warriors Of The Wasteland

    Image

Genre: Power Heavy
Location: Germany
Format: flac+cue+log+photo_covers
Size: 526 Mb


Quote:
Tracks 01-09 'Warriors Of The Wasteland' Demo.
Tracks 10-13 from Demo 1991


Last known line-up:
Roland Seidel - Vocals (Kaminari, Kashmyr, Lazzer, Ihresgleichen)
Davor Sertic - Guitar (Tyran' Pace, Kashmyr, Ihresgleichen)
Stefan Leibing - Guitar, keyboards (Primal Fear, Insanity (Ger), Comedy Club)
Markus Plattner - Bass
Klaus Sperling - Drums (Donnerkopf, My Darkest Hate, Primal Fear, Insanity (Ger), MP, Sinner (Ger), Saidian)

    1. X-Ray Eyes - 05:24
    2. Kill the Killer - 04:55
    3. Wasteland - 06:26
    4. Dreams of Heaven - 07:29
    5. Can't Wait - 03:46
    6. Atomic Coffins - 05:03
    7. Still the World is Sad - 05:45
    8. Warning - 07:37
    9. Bombastic Chiefs - 01:55
    10. Salvation - 05:58
    11. Calling Out Your Name - 03:30
    12. Deceide Your Destiny - 04:01
    13. Babylon - 05:55

    TPT: 01:07:44

Mega
Narod

Великолепный образчик германского хэви-пауэр, с гармоничным заползанием в трэш :true:
Все благодарности за релиз отправляем дяде Мише aka VARVAAR
:thanx:

log
EAC extraction logfile from 18. June 2009, 9:53 for CD
Wasteland / Warriors of the Wasteland

Used drive : _NEC DVD_RW ND-3520A Adapter: 1 ID: 0
Read mode : Secure with NO C2, accurate stream, disable cache
Read offset correction : 48
Overread into Lead-In and Lead-Out : No

Used output format : Internal WAV Routines
44.100 Hz; 16 Bit; Stereo
Use compression offset : 0

Other options :
Fill up missing offset samples with silence : Yes
Delete leading and trailing silent blocks : No
Installed external ASPI interface


Range status and errors
Selected range
Filename D:\Wasteland cue\Wasteland.wav

Peak level 99.0 %
Range quality 99.9 %
CRC 1F8E639A
Copy OK

No errors occured

End of status report

spectrum
красивый

_________________


Top
 Profile E-mail  
 
 
PostPosted: 17 Jul 2009 
Труъ
User avatar
Joined: 14 Jul 2009
Posts: 158
Lоcаtion: Hell Is Here
Age: 48
Name: Adriano
Scatterbrain, Thank You !!


Top
 Profile E-mail  
 
 
PostPosted: 03 Aug 2009 
.
Joined: 01 Mar 2009
Posts: 136
Age: 36
Name: .
скачал, а куй почему-то выдает ошибку - неправильное значение в строке 7 :vic:
вот эта вот строчка ему кажется неправильной
Quote:
ISRC 000000000000

кто подскажет, что не так?

_________________
Image


Top
 Profile  
 
 
PostPosted: 03 Aug 2009 
Хиппей (support team)
User avatar
Joined: 30 Jul 2007
Posts: 107911
Lоcаtion: Киев (Kyiv, UA)
Age: 45
Name: Andrey
Headbanger wrote:
ISRC 000000000000

Хм, это значение никак на запись не должно влиять.
http://ru.wikipedia.org/wiki/ISRC
Можно весь куй посмотеть? А то щас нету под рукой болванки с лосем :vic:

_________________


Top
 Profile E-mail  
 
 
PostPosted: 03 Aug 2009 
Прокъмитолист
User avatar
Joined: 12 Aug 2007
Posts: 6500
Lоcаtion: Санктъ-Петербуркъ
Age: 51
Name: Олекъ
я обычно стираю строчки с ISRC. толку от них никакого. но Андрей прав: желательно взглянуть на куй целиком.

_________________
прокъметол - это музыко, от которово есть прок (ы)


Top
 Profile  
 
 
PostPosted: 03 Aug 2009 
Хиппей (support team)
User avatar
Joined: 30 Jul 2007
Posts: 107911
Lоcаtion: Киев (Kyiv, UA)
Age: 45
Name: Andrey
Назрела таки необходимость постить в дальнейшем и куи на форуме.
А то частенько и они очень нужны, как показала практика :oops:

_________________


Top
 Profile E-mail  
 
 
PostPosted: 03 Aug 2009 
.
Joined: 01 Mar 2009
Posts: 136
Age: 36
Name: .
тыц
PERFORMER "Wasteland"
TITLE "Warriors of the Wasteland"
FILE "Wasteland - 1990 [reissue 2002].wav" WAVE
TRACK 01 AUDIO
TITLE "X-Ray Eyes"
PERFORMER "Wasteland"
ISRC 000000000000
INDEX 01 00:00:00
TRACK 02 AUDIO
TITLE "Kill the Killer"
PERFORMER "Wasteland"
ISRC 000000000000
INDEX 01 05:24:03
TRACK 03 AUDIO
TITLE "Wasteland"
PERFORMER "Wasteland"
ISRC 000000000000
INDEX 01 10:19:69
TRACK 04 AUDIO
TITLE "Dreams of Heaven"
PERFORMER "Wasteland"
ISRC 000000000000
INDEX 01 16:45:72
TRACK 05 AUDIO
TITLE "Can't wait"
PERFORMER "Wasteland"
ISRC 000000000000
INDEX 01 24:14:69
TRACK 06 AUDIO
TITLE "Atomic Coffins"
PERFORMER "Wasteland"
ISRC 000000000000
INDEX 01 28:00:72
TRACK 07 AUDIO
TITLE "Still the World is sad"
PERFORMER "Wasteland"
ISRC 000000000000
INDEX 01 33:03:03
TRACK 08 AUDIO
TITLE "Warning"
PERFORMER "Wasteland"
ISRC 000000000000
INDEX 01 38:48:53
TRACK 09 AUDIO
TITLE "Bombastic Chiefs"
PERFORMER "Wasteland"
ISRC 000000000000
INDEX 01 46:25:45
TRACK 10 AUDIO
TITLE "Salvation (Bonus)"
PERFORMER "Wasteland"
ISRC 000000000000
INDEX 01 48:20:33
TRACK 11 AUDIO
TITLE "Calling out your Name (Bonus)"
PERFORMER "Wasteland"
ISRC 000000000000
INDEX 01 54:18:11
TRACK 12 AUDIO
TITLE "Deceide your Destiny (Bonus)"
PERFORMER "Wasteland"
ISRC 000000000000
INDEX 01 57:48:46
TRACK 13 AUDIO
TITLE "Babylon (Bonus)"
PERFORMER "Wasteland"
ISRC 000000000000
INDEX 01 61:49:08


вот вам куй во всей красе

_________________
Image


Top
 Profile  
 
 
PostPosted: 03 Aug 2009 
Прокъмитолист
User avatar
Joined: 12 Aug 2007
Posts: 6500
Lоcаtion: Санктъ-Петербуркъ
Age: 51
Name: Олекъ
Headbanger wrote:
вот вам куй во всей красе

во всей красе - это когда такие вещи прячут в тэги "spoiler" ;)
в общем, я бы стер все строчки ISRC

_________________
прокъметол - это музыко, от которово есть прок (ы)


Top
 Profile  
 
 
PostPosted: 03 Aug 2009 
дядя Миша
User avatar
Joined: 17 Oct 2008
Posts: 3068
Lоcаtion: USSR
Age: 56
Name: Khy
:smile:
"CUE"
PERFORMER "Wasteland"
TITLE "Warriors of the Wasteland"
FILE "Wasteland - 1990 [reissue 2002].wav" WAVE
TRACK 01 AUDIO
TITLE "X-Ray Eyes"
PERFORMER "Wasteland"
ISRC 000000000000
INDEX 01 00:00:00
TRACK 02 AUDIO
TITLE "Kill the Killer"
PERFORMER "Wasteland"
ISRC 000000000000
INDEX 01 05:24:03
TRACK 03 AUDIO
TITLE "Wasteland"
PERFORMER "Wasteland"
ISRC 000000000000
INDEX 01 10:19:69
TRACK 04 AUDIO
TITLE "Dreams of Heaven"
PERFORMER "Wasteland"
ISRC 000000000000
INDEX 01 16:45:72
TRACK 05 AUDIO
TITLE "Can't wait"
PERFORMER "Wasteland"
ISRC 000000000000
INDEX 01 24:14:69
TRACK 06 AUDIO
TITLE "Atomic Coffins"
PERFORMER "Wasteland"
ISRC 000000000000
INDEX 01 28:00:72
TRACK 07 AUDIO
TITLE "Still the World is sad"
PERFORMER "Wasteland"
ISRC 000000000000
INDEX 01 33:03:03
TRACK 08 AUDIO
TITLE "Warning"
PERFORMER "Wasteland"
ISRC 000000000000
INDEX 01 38:48:53
TRACK 09 AUDIO
TITLE "Bombastic Chiefs"
PERFORMER "Wasteland"
ISRC 000000000000
INDEX 01 46:25:45
TRACK 10 AUDIO
TITLE "Salvation (Bonus)"
PERFORMER "Wasteland"
ISRC 000000000000
INDEX 01 48:20:33
TRACK 11 AUDIO
TITLE "Calling out your Name (Bonus)"
PERFORMER "Wasteland"
ISRC 000000000000
INDEX 01 54:18:11
TRACK 12 AUDIO
TITLE "Deceide your Destiny (Bonus)"
PERFORMER "Wasteland"
ISRC 000000000000
INDEX 01 57:48:46
TRACK 13 AUDIO
TITLE "Babylon (Bonus)"
PERFORMER "Wasteland"
ISRC 000000000000
INDEX 01 61:49:08


Top
 Profile  
 
 
PostPosted: 03 Aug 2009 
Хиппей (support team)
User avatar
Joined: 30 Jul 2007
Posts: 107911
Lоcаtion: Киев (Kyiv, UA)
Age: 45
Name: Andrey
Кто будет третьим? :crazy:

_________________


Top
 Profile E-mail  
 
 
PostPosted: 03 Aug 2009 
Прокъмитолист
User avatar
Joined: 12 Aug 2007
Posts: 6500
Lоcаtion: Санктъ-Петербуркъ
Age: 51
Name: Олекъ
Scatterbrain wrote:
Кто будет третьим? :crazy:

наливай :crazy:

тыц-тырыц
    Quote:
    PERFORMER "Wasteland"
    TITLE "Warriors of the Wasteland"
    FILE "Wasteland - 1990 [reissue 2002].wav" WAVE
    TRACK 01 AUDIO
    TITLE "X-Ray Eyes"
    PERFORMER "Wasteland"
    INDEX 01 00:00:00
    TRACK 02 AUDIO
    TITLE "Kill the Killer"
    PERFORMER "Wasteland"
    INDEX 01 05:24:03
    TRACK 03 AUDIO
    TITLE "Wasteland"
    PERFORMER "Wasteland"
    INDEX 01 10:19:69
    TRACK 04 AUDIO
    TITLE "Dreams of Heaven"
    PERFORMER "Wasteland"
    INDEX 01 16:45:72
    TRACK 05 AUDIO
    TITLE "Can't wait"
    PERFORMER "Wasteland"
    INDEX 01 24:14:69
    TRACK 06 AUDIO
    TITLE "Atomic Coffins"
    PERFORMER "Wasteland"
    INDEX 01 28:00:72
    TRACK 07 AUDIO
    TITLE "Still the World is sad"
    PERFORMER "Wasteland"
    INDEX 01 33:03:03
    TRACK 08 AUDIO
    TITLE "Warning"
    PERFORMER "Wasteland"
    INDEX 01 38:48:53
    TRACK 09 AUDIO
    TITLE "Bombastic Chiefs"
    PERFORMER "Wasteland"
    INDEX 01 46:25:45
    TRACK 10 AUDIO
    TITLE "Salvation (Bonus)"
    PERFORMER "Wasteland"
    INDEX 01 48:20:33
    TRACK 11 AUDIO
    TITLE "Calling out your Name (Bonus)"
    PERFORMER "Wasteland"
    INDEX 01 54:18:11
    TRACK 12 AUDIO
    TITLE "Deceide your Destiny (Bonus)"
    PERFORMER "Wasteland"
    INDEX 01 57:48:46
    TRACK 13 AUDIO
    TITLE "Babylon (Bonus)"
    PERFORMER "Wasteland"
    INDEX 01 61:49:08

_________________
прокъметол - это музыко, от которово есть прок (ы)


Top
 Profile  
 
 
PostPosted: 03 Aug 2009 
Хиппей (support team)
User avatar
Joined: 30 Jul 2007
Posts: 107911
Lоcаtion: Киев (Kyiv, UA)
Age: 45
Name: Andrey
О, получился короче, зато трушнее :true:

_________________


Top
 Profile E-mail  
 
 
PostPosted: 03 Aug 2009 
.
Joined: 01 Mar 2009
Posts: 136
Age: 36
Name: .
спасибо. теперь все в порядке

_________________
Image


Top
 Profile  
 
 
PostPosted: 10 Aug 2011 
ТрэшЭрос
User avatar
Joined: 18 Jul 2011
Posts: 2296
Lоcаtion: Гулькевичи
Age: 43
Name: Александр
Интересно, групп с таким названием только в Германии было аж три!!! :shok: А всего - 8...
Вот тута зырить: http://www.spirit-of-metal.com/liste_gr ... -l-ru.html
Всем :thanx:

_________________
Thrash no trash!!!


Top
 Profile E-mail  
 
 
PostPosted: 11 Aug 2011 
Хиппей (support team)
User avatar
Joined: 30 Jul 2007
Posts: 107911
Lоcаtion: Киев (Kyiv, UA)
Age: 45
Name: Andrey
Все же лучше тута http://www.metal-archives.com зырить :umnik:

_________________


Top
 Profile E-mail  
 
Display posts from previous:  Sort by  
Post new topic Reply to topic  [ 15 posts ] 

All times are UTC + 3 hours


Who is online

Users browsing this forum: No registered users and 1 guest


You cannot post new topics in this forum
You cannot reply to topics in this forum
You cannot edit your posts in this forum
You cannot delete your posts in this forum
You cannot post attachments in this forum

Search for:
Яндекс.Метрика
Powered by phpBB © 2000, 2002, 2005, 2007 phpBB Group