\m/ 80's metal \m/

Информационно-аналитический форум "80 см пыли" (In Search We Trust) "У нас никто никуда не спешит"
Me For You - http://me-4u.com
It is currently 21 Nov 2018

All times are UTC + 3 hours

Spoiler
Chat - temporary registration for foreign users (please leave your application here)







Post new topic Reply to topic  [ 5 posts ] 
Author Message
 
PostPosted: 25 Apr 2009 
А может смените мне статус?..
User avatar
Joined: 08 Nov 2007
Posts: 634
Lоcаtion: Crimea, UA
Age: 32
Name: Анатолий
W.A.S.P. - Dying For The World [Japan]

Image

Genre: Heavy Metal
Country: US
Year: 2002
Format: EAC-FLAC-CUE
Size: 445 Mb

1. Shadow Man — 5:34
2. My Wicked Heart — 5:38
3. Black Bone Torso — 2:15
4. Hell for Eternity — 4:38
5. Hallowed Ground — 5:54
6. Revengeance — 5:20
7. Trail of Tears — 5:50
8. Stone Cold Killers — 4:56
9. Rubber Man — 4:25
10. Hallowed Ground (Take #5 acoustic) — 6:08
11. Revengeance (Karaoke Version) — 5:21 [Japan bonus]
12. Trail Of Tears (Take #1) — 5:04 [Japan bonus]
13. Hallowed Ground (Take #2) — 5:19 [Japan bonus]


Image

Ifolder pt.1
Ifolder pt.2
Ifolder pt.3
Ifolder pt.4
Ifolder pt.5


Top
 Profile  
 
 
PostPosted: 25 Apr 2009 
А может смените мне статус?..
User avatar
Joined: 24 Dec 2008
Posts: 621
Age: 44
Name: Дмитрий
Спасибо за японца! :roll:


Top
 Profile  
 
 
PostPosted: 25 Apr 2009 
Хиппей (support team)
User avatar
Joined: 30 Jul 2007
Posts: 108232
Lоcаtion: Киев (Kyiv, UA)
Age: 45
Name: Andrey
Спасибо! :thanx:


Top
 Profile E-mail  
 
 
PostPosted: 27 Apr 2009 
Труъ
User avatar
Joined: 29 Aug 2007
Posts: 183
Lоcаtion: Таганрог
Age: 37
Name: Денис
:thanx:

_________________
'The Priest Is Back'


Top
 Profile E-mail  
 
 
PostPosted: 28 Apr 2009 
10cm
User avatar
Joined: 26 Aug 2007
Posts: 93
Lоcаtion: Москва
Age: 46
Ещё раз рахмат! :thanx:
Здесь кстати та же самая история:
Quote:
[Verification date: 28.04.2009 18:56:24]
[Disc ID: 001f52ba-013ad030-ad0f940d]
Track [ CRC ] Status
01 [c3436cb9] (01/01) Accurately ripped as in pressing(s) #1
02 [1af5f49b] (01/01) Accurately ripped as in pressing(s) #1
03 [500d95a0] (01/01) Accurately ripped as in pressing(s) #1
04 [ee56b4b9] (01/01) Accurately ripped as in pressing(s) #1
05 [27e8c628] (01/01) Accurately ripped as in pressing(s) #1
06 [b903e4c2] (01/01) Accurately ripped as in pressing(s) #1
07 [a87ed7ce] (01/01) Accurately ripped as in pressing(s) #1
08 [eeca3a94] (01/01) Accurately ripped as in pressing(s) #1
09 [9afaee58] (01/01) Accurately ripped as in pressing(s) #1
10 [b5404ef0] (01/01) Accurately ripped as in pressing(s) #1
11 [636a8fbf] (01/01) Accurately ripped as in pressing(s) #1
12 [6e4f32ae] (01/01) Accurately ripped as in pressing(s) #1
13 [4aeb3766] (01/01) Accurately ripped as in pressing(s) #1

Track [ CRC32 ]
-- [E9445194]
01 [8BE68C23]
02 [877EDFC9]
03 [D7A3C662]
04 [3C20A978]
05 [0A66E862]
06 [2FDCF56D]
07 [40AF3CB4]
08 [FA63DE9D]
09 [B17C48AA]
10 [EF2662FF]
11 [310A230B]
12 [9FDE4546]
13 [E54B68CB]

_________________
how does it make you feel?


Top
 Profile  
 
Display posts from previous:  Sort by  
Post new topic Reply to topic  [ 5 posts ] 

All times are UTC + 3 hours


Who is online

Users browsing this forum: No registered users and 3 guests


You cannot post new topics in this forum
You cannot reply to topics in this forum
You cannot edit your posts in this forum
You cannot delete your posts in this forum
You cannot post attachments in this forum

Search for:
Яндекс.Метрика
Powered by phpBB © 2000, 2002, 2005, 2007 phpBB Group