\m/ 80's metal \m/

Информационно-аналитический форум "80 см пыли" (In Search We Trust) "У нас никто никуда не спешит"
Железнодорожная биржа - RailAgent
It is currently 21 Aug 2018

All times are UTC + 3 hours

Spoiler
Chat - temporary registration for foreign users (please leave your application here)







Post new topic Reply to topic  [ 17 posts ] 
Author Message
 
PostPosted: 25 Apr 2009 
А может смените мне статус?..
User avatar
Joined: 08 Nov 2007
Posts: 634
Lоcаtion: Crimea, UA
Age: 32
Name: Анатолий
W.A.S.P. - Helldorado (Japan)

http://pic.ipicture.ru/uploads/090424/JWL3R8Xt2o.jpg

Genre: Heavy Metal
Country: US
Year: 1999
Format: EAC-FLAC-CUE
Size: 389 Mb

1. Drive By 00:54
2. Helldorado 05:06
3. Don't Cry (Just Suck)04:17
4. Damnation Angels 06:27
5. Dirty Balls 05:20
6. High On The Flames 04:11
7. Cocaine Cowboys 03:58
8. Can't Die Tonight 04:04
9. Saturday Night Cockfight 03:21
10. Hot Rods To Hell (Helldorado Reprise) 04:14
11. Don't Cry (Just Suck) (Karaoke Mix) (Japan bonus)
12. Dirty Balls (Karaoke Mix) (Japan bonus)


http://pic.ipicture.ru/uploads/090424/u4xq6zzo9J.jpg

Ifolder pt.1
Ifolder pt.2
Ifolder pt.3
Ifolder pt.4

P.S. Серёге rocks555 благодарность за заказ диска с ебэя :thanx:
test


Top
 Profile  
 
 
PostPosted: 25 Apr 2009 
А может смените мне статус?..
User avatar
Joined: 24 Dec 2008
Posts: 612
Age: 44
Name: Дмитрий
И ещё спасибо! :thanx:


Top
 Profile  
 
 
PostPosted: 25 Apr 2009 
Хиппей (support team)
User avatar
Joined: 30 Jul 2007
Posts: 105689
Lоcаtion: Киев (Kyiv, UA)
Age: 45
Name: Andrey
:true:


Top
 Profile E-mail  
 
 
PostPosted: 27 Apr 2009 
Труъ
User avatar
Joined: 29 Aug 2007
Posts: 183
Lоcаtion: Таганрог
Age: 37
Name: Денис
:thanx:

_________________
'The Priest Is Back'


Top
 Profile E-mail  
 
 
PostPosted: 28 Apr 2009 
10cm
User avatar
Joined: 26 Aug 2007
Posts: 93
Lоcаtion: Москва
Age: 46
Большой рахмат! :thanx:
Имхо, самая рокенролльная у них пластинка после 80-ых, а караоку терь по пьяне будем распевать! :true:

З.Ы.: Кстати странно что у тебя она по аккурипу не определилась (см. лог EAC). Мой CUE Tools сказал мне что
Quote:
[Verification date: 28.04.2009 18:33:26]
[Disc ID: 00164dff-00d396a5-910c2d0c]
Track [ CRC ] Status
01 [758aff13] (01/01) Accurately ripped as in pressing(s) #1
02 [1c513e28] (01/01) Accurately ripped as in pressing(s) #1
03 [36637d99] (01/01) Accurately ripped as in pressing(s) #1
04 [85c5dc0c] (01/01) Accurately ripped as in pressing(s) #1
05 [2da26336] (01/01) Accurately ripped as in pressing(s) #1
06 [dfebbe0d] (01/01) Accurately ripped as in pressing(s) #1
07 [7fe8000e] (01/01) Accurately ripped as in pressing(s) #1
08 [036ba2c3] (01/01) Accurately ripped as in pressing(s) #1
09 [592c46a9] (01/01) Accurately ripped as in pressing(s) #1
10 [8ba307e4] (01/01) Accurately ripped as in pressing(s) #1
11 [13713c89] (01/01) Accurately ripped as in pressing(s) #1
12 [501fd45f] (01/01) Accurately ripped as in pressing(s) #1

Track [ CRC32 ]
-- [ACD3A099]
01 [141347AD]
02 [32AB7EAE]
03 [92D14B1D]
04 [9C2DD44C]
05 [9F74A5E9]
06 [60B037E0]
07 [6844D43D]
08 [F587EF77]
09 [5D02AD8A]
10 [24B77FBB]
11 [90B0ED6A]
12 [B91D2DFB]

_________________
how does it make you feel?


Top
 Profile  
 
 
PostPosted: 28 Apr 2009 
А может смените мне статус?..
User avatar
Joined: 08 Nov 2007
Posts: 634
Lоcаtion: Crimea, UA
Age: 32
Name: Анатолий
хм.. странно, может кто-то после меня успел рипнуть :pardon:


Top
 Profile  
 
 
PostPosted: 28 Apr 2009 
Прокъмитолист
User avatar
Joined: 12 Aug 2007
Posts: 6447
Lоcаtion: Санктъ-Петербуркъ
Age: 50
Name: Олекъ
Nitro wrote:
хм.. странно, может кто-то после меня успел рипнуть :pardon:

а может как раз твой рип в базу ушел? :roll:

_________________
прокъметол - это музыко, от которово есть прок (ы)


Top
 Profile  
 
 
PostPosted: 29 Apr 2009 
А может смените мне статус?..
User avatar
Joined: 08 Nov 2007
Posts: 634
Lоcаtion: Crimea, UA
Age: 32
Name: Анатолий
spiralarch wrote:
Nitro wrote:
хм.. странно, может кто-то после меня успел рипнуть :pardon:

а может как раз твой рип в базу ушел? :roll:


Блин. Точно. Я ж сразу после того как рипнул отправил результаты :dash:


Top
 Profile  
 
 
PostPosted: 31 Dec 2009 
Файл удален! Перезалейте пож. по возможности.


Top
  
 
 
PostPosted: 15 Jan 2010 
А может смените мне статус?..
User avatar
Joined: 08 Nov 2007
Posts: 634
Lоcаtion: Crimea, UA
Age: 32
Name: Анатолий
Сейчас перезалью.

Вообще, если срочно - торренты не забываем.
http://torrents.ru/forum/viewtopic.php?t=1789583


Top
 Profile  
 
 
PostPosted: 15 Jan 2010 
5-speed satisfactor
User avatar
Joined: 16 Feb 2009
Posts: 3547
Lоcаtion: New York, USA
Age: 40
Name: Leonid
Я на торренте не могу зарегиться. Можно в айфолдер или мегу?

_________________
Death rules! Metal to all who oppose!


Top
 Profile  
 
 
PostPosted: 16 Jan 2010 
А может смените мне статус?..
User avatar
Joined: 08 Nov 2007
Posts: 634
Lоcаtion: Crimea, UA
Age: 32
Name: Анатолий
Новые ссылки:

Ifolder pt.1
Ifolder pt.2
Ifolder pt.3
Ifolder pt.4

Первое сообщение не редактируется, ошибка какая-то.


Top
 Profile  
 
 
PostPosted: 16 Jan 2010 
5-speed satisfactor
User avatar
Joined: 16 Feb 2009
Posts: 3547
Lоcаtion: New York, USA
Age: 40
Name: Leonid
:thanx:

_________________
Death rules! Metal to all who oppose!


Top
 Profile  
 
 
PostPosted: 16 Jan 2010 
дядя Миша
User avatar
Joined: 17 Oct 2008
Posts: 3045
Lоcаtion: USSR
Age: 55
Name: Khy
спасибо за торрент сылку , я с ним дружу... :true:
Альбом понравился.


Top
 Profile  
 
 
PostPosted: 16 Jan 2010 
хард н хэвщик (support team)
User avatar
Joined: 02 Jun 2008
Posts: 16880
Lоcаtion: Н.Новгород
Age: 31
Name: Артем
Nitro wrote:
Первое сообщение не редактируется, ошибка какая-то.

убери из первого сообщения ссылку на http://pic.ipicture.ru/


Top
 Profile  
 
 
PostPosted: 16 Jan 2010 
Хиппей (support team)
User avatar
Joined: 30 Jul 2007
Posts: 105689
Lоcаtion: Киев (Kyiv, UA)
Age: 45
Name: Andrey
Nitro wrote:
Первое сообщение не редактируется, ошибка какая-то.

Подправил...

_________________


Top
 Profile E-mail  
 
 
PostPosted: 18 Jan 2010 
Пионэръ
User avatar
Joined: 05 Jan 2010
Posts: 17
Lоcаtion: Mother Russia
Name: Леонид
Спасибо огромное за перезаливку!!! :true:

_________________
Image


Top
 Profile E-mail  
 
Display posts from previous:  Sort by  
Post new topic Reply to topic  [ 17 posts ] 

All times are UTC + 3 hours


Who is online

Users browsing this forum: No registered users and 2 guests


You cannot post new topics in this forum
You cannot reply to topics in this forum
You cannot edit your posts in this forum
You cannot delete your posts in this forum
You cannot post attachments in this forum

Search for:
Яндекс.Метрика
Powered by phpBB © 2000, 2002, 2005, 2007 phpBB Group