\m/ 80's metal \m/

Информационно-аналитический форум "80 см пыли" (In Search We Trust) "У нас никто никуда не спешит"
Me For You - http://me-4u.com
It is currently 21 Nov 2018

All times are UTC + 3 hours

Spoiler
Chat - temporary registration for foreign users (please leave your application here)







Post new topic Reply to topic  [ 22 posts ]  Go to page 1, 2  Next
Author Message
 
PostPosted: 27 Feb 2009 
5cm
User avatar
Joined: 24 Feb 2009
Posts: 68
Age: 43
Name: .
Warpath - 1993 - Massive

Image

Genre: Thrash Metal
Location: Germany
Label: Steamhammer
Format: ape+cue+log
Size: 284 Mb


1. Intro 00:30
2. Massive 02:59
3. Extend 02:37
4. Pain 03:01
5. Race War (Carnivore cover) 05:45
6. Ambivalence 03:32
7. Save Me From The Wreckage 03:32
8. Fears Of The Past 04:27
9. Remember My Name 03:17
10. Always Near You 03:14
11. Thoughts Begin To Bite 04:55
12. Reason Enough To Die 02:39

Классный трэшак в лучших традициях начала 90-х, немного отдает Sepultura времён Beneath... & Arise.


http://narod.ru/disk/6152301000/W93.zip.html


Top
 Profile  
 
 
PostPosted: 27 Feb 2009 
Хиппей (support team)
User avatar
Joined: 30 Jul 2007
Posts: 108255
Lоcаtion: Киев (Kyiv, UA)
Age: 45
Name: Andrey
О, вот за это спасибищщо :true:


Top
 Profile E-mail  
 
 
PostPosted: 01 Mar 2009 
Зарегился вот...
Joined: 28 Nov 2008
Posts: 1
Age: 43
Name: .
Интересно послушать! Спасибо!


Top
 Profile  
 
 
PostPosted: 16 Apr 2009 
Труъ
User avatar
Joined: 05 Oct 2008
Posts: 194
Lоcаtion: Saint Petersburg
Age: 45
Name: Jesse
Спасибо! :true:


Top
 Profile  
 
 
PostPosted: 20 Apr 2009 
10cm
User avatar
Joined: 26 Aug 2007
Posts: 93
Lоcаtion: Москва
Age: 46
Спасибо! Кавер на CARNIVORE порадовал :true:

_________________
how does it make you feel?


Top
 Profile  
 
 
PostPosted: 09 Mar 2011 
Генеральный thrasher
User avatar
Joined: 03 Oct 2008
Posts: 3510
Lоcаtion: Ханты-Мансийский АО
Age: 43
Name: Сергей
Лосик :losik: с моего диска:

Cue
REM GENRE "Thrash Metal"
REM DATE 1993
REM DISCID 9809820B
REM COMMENT "ExactAudioCopy v0.99pb5"
PERFORMER "Warpath"
TITLE "Massive"
FILE "Warpath - Massive.flac" WAVE
TRACK 01 AUDIO
TITLE "Intro - Massive"
PERFORMER "Warpath"
INDEX 01 00:00:00
TRACK 02 AUDIO
TITLE "Extend"
PERFORMER "Warpath"
INDEX 00 03:28:45
INDEX 01 03:29:70
TRACK 03 AUDIO
TITLE "Pain"
PERFORMER "Warpath"
INDEX 00 06:06:13
INDEX 01 06:07:25
TRACK 04 AUDIO
TITLE "Race War"
PERFORMER "Warpath"
INDEX 00 09:06:08
INDEX 01 09:08:40
TRACK 05 AUDIO
TITLE "Ambivalence"
PERFORMER "Warpath"
INDEX 00 14:52:03
INDEX 01 14:53:70
TRACK 06 AUDIO
TITLE "Save Me From The Wreckage"
PERFORMER "Warpath"
INDEX 00 18:24:43
INDEX 01 18:26:23
TRACK 07 AUDIO
TITLE "Fears Of The Past"
PERFORMER "Warpath"
INDEX 00 21:57:45
INDEX 01 21:58:70
TRACK 08 AUDIO
TITLE "Remember My Name"
PERFORMER "Warpath"
INDEX 00 26:24:68
INDEX 01 26:26:45
TRACK 09 AUDIO
TITLE "Always Near You"
PERFORMER "Warpath"
INDEX 00 29:42:08
INDEX 01 29:44:33
TRACK 10 AUDIO
TITLE "Thoughts Begin To Bite"
PERFORMER "Warpath"
INDEX 00 32:57:08
INDEX 01 32:59:08
TRACK 11 AUDIO
TITLE "Reason Enough To Die"
PERFORMER "Warpath"
INDEX 00 37:51:43
INDEX 01 37:54:43


Log
Exact Audio Copy V0.99 prebeta 5 from 4. May 2009

Отчёт EAC об извлечении, выполненном 7. марта 2011, 12:06

Warpath / Massive

Дисковод: TSSTcorpCDDVDW SH-S202N Adapter: 0 ID: 1

Режим чтения : Достоверность
Использование точного потока : Да
Отключение кэша аудио : Да
Использование указателей C2 : Нет

Коррекция смещения при чтении : 6
Способность читать области Lead-in и Lead-out : Нет
Заполнение пропущенных сэмплов тишиной : Да
Удаление блоков с тишиной в начале и конце : Нет
При вычислениях CRC использовались нулевые сэмплы : Да
Интерфейс : Встроенный Win32-интерфейс для Win NT/2000

Выходной формат : Пользовательский кодировщик
Выбранный битрейт : 768 kBit/s
Качество : Высокий
Добавление ID3-тэга : Нет
Утилита сжатия : C:\Program Files\Exact Audio Copy\FLAC\FLAC.EXE
Дополнительные параметры : -6 -V -T "ARTIST=%a" -T "TITLE=%t" -T "ALBUM=%g" -T "DATE=%y" -T "TRACKNUMBER=%n" -T "GENRE=%m" -T "COMMENT=%e" %s -o %d


TOC извлечённого CD

Трек | Старт | Длительность | Начальный сектор | Конечный сектор
---------------------------------------------------------------------
1 | 0:00.00 | 3:29.70 | 0 | 15744
2 | 3:29.70 | 2:37.30 | 15745 | 27549
3 | 6:07.25 | 3:01.15 | 27550 | 41139
4 | 9:08.40 | 5:45.30 | 41140 | 67044
5 | 14:53.70 | 3:32.28 | 67045 | 82972
6 | 18:26.23 | 3:32.47 | 82973 | 98919
7 | 21:58.70 | 4:27.50 | 98920 | 118994
8 | 26:26.45 | 3:17.63 | 118995 | 133832
9 | 29:44.33 | 3:14.50 | 133833 | 148432
10 | 32:59.08 | 4:55.35 | 148433 | 170592
11 | 37:54.43 | 2:39.32 | 170593 | 182549


Характеристики диапазона извлечения и сообщения об ошибках

Выбранный диапазон

Имя файла D:\Lossless Music\Warpath - Massive.wav

Пиковый уровень 98.8 %
Качество диапазона 100.0 %
CRC копии 1F00D88B
Копирование... OK

Ошибок не произошло


AccurateRip: сводка

Трек 1 точное извлечение (доверие 5) [630E8F0D]
Трек 2 точное извлечение (доверие 5) [1280B8E9]
Трек 3 точное извлечение (доверие 5) [C7B4C3A7]
Трек 4 точное извлечение (доверие 5) [C0B2EA27]
Трек 5 точное извлечение (доверие 5) [56DA29A0]
Трек 6 точное извлечение (доверие 5) [CEB769B2]
Трек 7 точное извлечение (доверие 5) [68CF862F]
Трек 8 точное извлечение (доверие 5) [3862756D]
Трек 9 точное извлечение (доверие 5) [77A4D07F]
Трек 10 точное извлечение (доверие 5) [F1616276]
Трек 11 точное извлечение (доверие 5) [A5E90F3D]

Все треки извлечены точно

Конец отчёта


Massive


Top
 Profile  
 
 
PostPosted: 09 Mar 2011 
Хиппей (support team)
User avatar
Joined: 30 Jul 2007
Posts: 108255
Lоcаtion: Киев (Kyiv, UA)
Age: 45
Name: Andrey
:thanx:

mirror: http://www.multiupload.com/PZTEQ5DYA8

Как-то странно ссылка Кузьмы выглядит сейчас... Понятно, что файл давно удалён, но... почему выдает при переходе по ссылке ошибку? :vic:
Явно незаметно Народ сменил метод генерации ссылок...

_________________


Top
 Profile E-mail  
 
 
PostPosted: 09 Mar 2011 
10cm
User avatar
Joined: 26 Aug 2007
Posts: 93
Lоcаtion: Москва
Age: 46
Scatterbrain wrote:
Как-то странно ссылка Кузьмы выглядит сейчас...

гы))) кстате да :nunu:

_________________
how does it make you feel?


Top
 Profile  
 
 
PostPosted: 09 Mar 2011 
Позитивный Южанин
User avatar
Joined: 07 May 2010
Posts: 1620
Lоcаtion: КРЫМ
Age: 43
Name: Алексей
thorbeorn wrote:
Лосик :losik: с моего диска:

Cue
REM GENRE "Thrash Metal"
REM DATE 1993
REM DISCID 9809820B
REM COMMENT "ExactAudioCopy v0.99pb5"
PERFORMER "Warpath"
TITLE "Massive"
FILE "Warpath - Massive.flac" WAVE
TRACK 01 AUDIO
TITLE "Intro - Massive"
PERFORMER "Warpath"
INDEX 01 00:00:00
TRACK 02 AUDIO
TITLE "Extend"
PERFORMER "Warpath"
INDEX 00 03:28:45
INDEX 01 03:29:70
TRACK 03 AUDIO
TITLE "Pain"
PERFORMER "Warpath"
INDEX 00 06:06:13
INDEX 01 06:07:25
TRACK 04 AUDIO
TITLE "Race War"
PERFORMER "Warpath"
INDEX 00 09:06:08
INDEX 01 09:08:40
TRACK 05 AUDIO
TITLE "Ambivalence"
PERFORMER "Warpath"
INDEX 00 14:52:03
INDEX 01 14:53:70
TRACK 06 AUDIO
TITLE "Save Me From The Wreckage"
PERFORMER "Warpath"
INDEX 00 18:24:43
INDEX 01 18:26:23
TRACK 07 AUDIO
TITLE "Fears Of The Past"
PERFORMER "Warpath"
INDEX 00 21:57:45
INDEX 01 21:58:70
TRACK 08 AUDIO
TITLE "Remember My Name"
PERFORMER "Warpath"
INDEX 00 26:24:68
INDEX 01 26:26:45
TRACK 09 AUDIO
TITLE "Always Near You"
PERFORMER "Warpath"
INDEX 00 29:42:08
INDEX 01 29:44:33
TRACK 10 AUDIO
TITLE "Thoughts Begin To Bite"
PERFORMER "Warpath"
INDEX 00 32:57:08
INDEX 01 32:59:08
TRACK 11 AUDIO
TITLE "Reason Enough To Die"
PERFORMER "Warpath"
INDEX 00 37:51:43
INDEX 01 37:54:43


Log
Exact Audio Copy V0.99 prebeta 5 from 4. May 2009

Отчёт EAC об извлечении, выполненном 7. марта 2011, 12:06

Warpath / Massive

Дисковод: TSSTcorpCDDVDW SH-S202N Adapter: 0 ID: 1

Режим чтения : Достоверность
Использование точного потока : Да
Отключение кэша аудио : Да
Использование указателей C2 : Нет

Коррекция смещения при чтении : 6
Способность читать области Lead-in и Lead-out : Нет
Заполнение пропущенных сэмплов тишиной : Да
Удаление блоков с тишиной в начале и конце : Нет
При вычислениях CRC использовались нулевые сэмплы : Да
Интерфейс : Встроенный Win32-интерфейс для Win NT/2000

Выходной формат : Пользовательский кодировщик
Выбранный битрейт : 768 kBit/s
Качество : Высокий
Добавление ID3-тэга : Нет
Утилита сжатия : C:\Program Files\Exact Audio Copy\FLAC\FLAC.EXE
Дополнительные параметры : -6 -V -T "ARTIST=%a" -T "TITLE=%t" -T "ALBUM=%g" -T "DATE=%y" -T "TRACKNUMBER=%n" -T "GENRE=%m" -T "COMMENT=%e" %s -o %d


TOC извлечённого CD

Трек | Старт | Длительность | Начальный сектор | Конечный сектор
---------------------------------------------------------------------
1 | 0:00.00 | 3:29.70 | 0 | 15744
2 | 3:29.70 | 2:37.30 | 15745 | 27549
3 | 6:07.25 | 3:01.15 | 27550 | 41139
4 | 9:08.40 | 5:45.30 | 41140 | 67044
5 | 14:53.70 | 3:32.28 | 67045 | 82972
6 | 18:26.23 | 3:32.47 | 82973 | 98919
7 | 21:58.70 | 4:27.50 | 98920 | 118994
8 | 26:26.45 | 3:17.63 | 118995 | 133832
9 | 29:44.33 | 3:14.50 | 133833 | 148432
10 | 32:59.08 | 4:55.35 | 148433 | 170592
11 | 37:54.43 | 2:39.32 | 170593 | 182549


Характеристики диапазона извлечения и сообщения об ошибках

Выбранный диапазон

Имя файла D:\Lossless Music\Warpath - Massive.wav

Пиковый уровень 98.8 %
Качество диапазона 100.0 %
CRC копии 1F00D88B
Копирование... OK

Ошибок не произошло


AccurateRip: сводка

Трек 1 точное извлечение (доверие 5) [630E8F0D]
Трек 2 точное извлечение (доверие 5) [1280B8E9]
Трек 3 точное извлечение (доверие 5) [C7B4C3A7]
Трек 4 точное извлечение (доверие 5) [C0B2EA27]
Трек 5 точное извлечение (доверие 5) [56DA29A0]
Трек 6 точное извлечение (доверие 5) [CEB769B2]
Трек 7 точное извлечение (доверие 5) [68CF862F]
Трек 8 точное извлечение (доверие 5) [3862756D]
Трек 9 точное извлечение (доверие 5) [77A4D07F]
Трек 10 точное извлечение (доверие 5) [F1616276]
Трек 11 точное извлечение (доверие 5) [A5E90F3D]

Все треки извлечены точно

Конец отчёта


Massive

:thanx:

_________________
WATER'EM ALL!


Top
 Profile E-mail  
 
 
PostPosted: 12 Aug 2011 
ТрэшЭрос
User avatar
Joined: 18 Jul 2011
Posts: 2300
Lоcаtion: Гулькевичи
Age: 43
Name: Александр
thorbeorn
:thanx:

_________________
Thrash no trash!!!


Top
 Profile E-mail  
 
 
PostPosted: 10 Aug 2013 
Хиппей (support team)
User avatar
Joined: 30 Jul 2007
Posts: 108255
Lоcаtion: Киев (Kyiv, UA)
Age: 45
Name: Andrey
ImageImageImage

Links mirror part number three blya :fingal: F-Bit l Narod

Thanks to tovarisch Dmitriy "PoliGlot" Petrov za translate from Russian :esel: http://80s.takemetal.com/viewtopic.php?f=12&t=10978 :thanx:

Best regards, pan Andrew :fingal:

log
Exact Audio Copy V0.99 prebeta 5 from 4. May 2009

Отчёт EAC об извлечении, выполненном 7. марта 2011, 12:06

Warpath / Massive

Дисковод: TSSTcorpCDDVDW SH-S202N Adapter: 0 ID: 1

Режим чтения : Достоверность
Использование точного потока : Да
Отключение кэша аудио : Да
Использование указателей C2 : Нет

Коррекция смещения при чтении : 6
Способность читать области Lead-in и Lead-out : Нет
Заполнение пропущенных сэмплов тишиной : Да
Удаление блоков с тишиной в начале и конце : Нет
При вычислениях CRC использовались нулевые сэмплы : Да
Интерфейс : Встроенный Win32-интерфейс для Win NT/2000

Выходной формат : Пользовательский кодировщик
Выбранный битрейт : 768 kBit/s
Качество : Высокий
Добавление ID3-тэга : Нет
Утилита сжатия : C:\Program Files\Exact Audio Copy\FLAC\FLAC.EXE
Дополнительные параметры : -6 -V -T "ARTIST=%a" -T "TITLE=%t" -T "ALBUM=%g" -T "DATE=%y" -T "TRACKNUMBER=%n" -T "GENRE=%m" -T "COMMENT=%e" %s -o %d


TOC извлечённого CD

Трек | Старт | Длительность | Начальный сектор | Конечный сектор
---------------------------------------------------------------------
1 | 0:00.00 | 3:29.70 | 0 | 15744
2 | 3:29.70 | 2:37.30 | 15745 | 27549
3 | 6:07.25 | 3:01.15 | 27550 | 41139
4 | 9:08.40 | 5:45.30 | 41140 | 67044
5 | 14:53.70 | 3:32.28 | 67045 | 82972
6 | 18:26.23 | 3:32.47 | 82973 | 98919
7 | 21:58.70 | 4:27.50 | 98920 | 118994
8 | 26:26.45 | 3:17.63 | 118995 | 133832
9 | 29:44.33 | 3:14.50 | 133833 | 148432
10 | 32:59.08 | 4:55.35 | 148433 | 170592
11 | 37:54.43 | 2:39.32 | 170593 | 182549


Характеристики диапазона извлечения и сообщения об ошибках

Выбранный диапазон

Имя файла D:\Lossless Music\Warpath - Massive.wav

Пиковый уровень 98.8 %
Качество диапазона 100.0 %
CRC копии 1F00D88B
Копирование... OK

Ошибок не произошло


AccurateRip: сводка

Трек 1 точное извлечение (доверие 5) [630E8F0D]
Трек 2 точное извлечение (доверие 5) [1280B8E9]
Трек 3 точное извлечение (доверие 5) [C7B4C3A7]
Трек 4 точное извлечение (доверие 5) [C0B2EA27]
Трек 5 точное извлечение (доверие 5) [56DA29A0]
Трек 6 точное извлечение (доверие 5) [CEB769B2]
Трек 7 точное извлечение (доверие 5) [68CF862F]
Трек 8 точное извлечение (доверие 5) [3862756D]
Трек 9 точное извлечение (доверие 5) [77A4D07F]
Трек 10 точное извлечение (доверие 5) [F1616276]
Трек 11 точное извлечение (доверие 5) [A5E90F3D]

Все треки извлечены точно

Конец отчёта

cue
REM GENRE "Thrash Metal"
REM DATE 1993
REM DISCID 9809820B
REM COMMENT "ExactAudioCopy v0.99pb5"
PERFORMER "Warpath"
TITLE "Massive"
FILE "Warpath - Massive.flac" WAVE
TRACK 01 AUDIO
TITLE "Intro - Massive"
PERFORMER "Warpath"
INDEX 01 00:00:00
TRACK 02 AUDIO
TITLE "Extend"
PERFORMER "Warpath"
INDEX 00 03:28:45
INDEX 01 03:29:70
TRACK 03 AUDIO
TITLE "Pain"
PERFORMER "Warpath"
INDEX 00 06:06:13
INDEX 01 06:07:25
TRACK 04 AUDIO
TITLE "Race War"
PERFORMER "Warpath"
INDEX 00 09:06:08
INDEX 01 09:08:40
TRACK 05 AUDIO
TITLE "Ambivalence"
PERFORMER "Warpath"
INDEX 00 14:52:03
INDEX 01 14:53:70
TRACK 06 AUDIO
TITLE "Save Me From The Wreckage"
PERFORMER "Warpath"
INDEX 00 18:24:43
INDEX 01 18:26:23
TRACK 07 AUDIO
TITLE "Fears Of The Past"
PERFORMER "Warpath"
INDEX 00 21:57:45
INDEX 01 21:58:70
TRACK 08 AUDIO
TITLE "Remember My Name"
PERFORMER "Warpath"
INDEX 00 26:24:68
INDEX 01 26:26:45
TRACK 09 AUDIO
TITLE "Always Near You"
PERFORMER "Warpath"
INDEX 00 29:42:08
INDEX 01 29:44:33
TRACK 10 AUDIO
TITLE "Thoughts Begin To Bite"
PERFORMER "Warpath"
INDEX 00 32:57:08
INDEX 01 32:59:08
TRACK 11 AUDIO
TITLE "Reason Enough To Die"
PERFORMER "Warpath"
INDEX 00 37:51:43
INDEX 01 37:54:43

_________________


Top
 Profile E-mail  
 
 
PostPosted: 10 Aug 2013 
Хиппей (support team)
User avatar
Joined: 30 Jul 2007
Posts: 108255
Lоcаtion: Киев (Kyiv, UA)
Age: 45
Name: Andrey
Альбом пока снова прослушать не удается - опять чищу в срочном порядке место на винте :cry:

_________________


Top
 Profile E-mail  
 
 
PostPosted: 10 Aug 2013 
Хиппей (support team)
User avatar
Joined: 30 Jul 2007
Posts: 108255
Lоcаtion: Киев (Kyiv, UA)
Age: 45
Name: Andrey
cUsima wrote:
Genre: Thrash Metal

cUsima wrote:
Классный трэшак в лучших традициях начала 90-х, немного отдает Sepultura времён Beneath... & Arise.

Не, ну я всё же начал слушать =))
Ни хрена это, пардон, не трэш, а... некая реинкарнация группы Carnivore :true:
Только в современной (для начала 90-х) звучании. Немного грува и очень много драйва и вопле-рыков.
Так что это на процентов 70 хардкор, а на остальные 30, возможно и трэшу наберётся :pardon:

6+/10

_________________


Top
 Profile E-mail  
 
 
PostPosted: 10 Aug 2013 
Хиппей (support team)
User avatar
Joined: 30 Jul 2007
Posts: 108255
Lоcаtion: Киев (Kyiv, UA)
Age: 45
Name: Andrey
И еще... :umnik:
9-й трэк. На отметке 02:02 ~ 02:05 это что было за попёрдывание? :huh:

Слушаю по-прежнему на одной пластиковой колонке, потому не могу точно сказать, что это - артефакт при рипе или... взрывы типа трушные и на альбоме предусмотрены были заранее? :vic:

_________________


Top
 Profile E-mail  
 
 
PostPosted: 10 Aug 2013 
Хиппей (support team)
User avatar
Joined: 30 Jul 2007
Posts: 108255
Lоcаtion: Киев (Kyiv, UA)
Age: 45
Name: Andrey
cUsima wrote:
5. Race War (Carnivore cover) 05:45

Ха и еще три ха-ха-ха.
Только что посмотрел на трэклист.. =) :oops:

_________________


Top
 Profile E-mail  
 
 
PostPosted: 16 Nov 2018 
Хиппей (support team)
User avatar
Joined: 30 Jul 2007
Posts: 108255
Lоcаtion: Киев (Kyiv, UA)
Age: 45
Name: Andrey
WARPATH - Into The Dark (Lyric Video)




Новый альбом вот-вот.

По форуму ещё минимум три темы про Варпаты валяется :kro:

_________________


Top
 Profile E-mail  
 
 
PostPosted: 19 Nov 2018 
Работнечег
User avatar
Joined: 28 Aug 2007
Posts: 5557
Lоcаtion: г. Москва
Age: 29
Name: Дима
Хорошая песнь, ждем альбом! :true:


Top
 Profile E-mail  
 
 
PostPosted: 20 Nov 2018 
консэрваторъ
Joined: 11 Aug 2007
Posts: 16204
Lоcаtion: Псков
Age: 44
Name: Сергей
И новую аватарку Димы (church)... :true:

_________________
THRASH 'EM ALL


Top
 Profile E-mail  
 
 
PostPosted: 20 Nov 2018 
Генеральный thrasher
User avatar
Joined: 03 Oct 2008
Posts: 3510
Lоcаtion: Ханты-Мансийский АО
Age: 43
Name: Сергей
Предыдущий вообще не понравился. Покупать не стал. Посмотрим каков новый будет...


Top
 Profile  
 
 
PostPosted: 20 Nov 2018 
Работнечег
User avatar
Joined: 28 Aug 2007
Posts: 5557
Lоcаtion: г. Москва
Age: 29
Name: Дима
И новую аватарку Димы (church)... :true:

:kro: :kro:


Top
 Profile E-mail  
 
Display posts from previous:  Sort by  
Post new topic Reply to topic  [ 22 posts ]  Go to page 1, 2  Next

All times are UTC + 3 hours


Who is online

Users browsing this forum: No registered users and 2 guests


You cannot post new topics in this forum
You cannot reply to topics in this forum
You cannot edit your posts in this forum
You cannot delete your posts in this forum
You cannot post attachments in this forum

Search for:
Яндекс.Метрика
Powered by phpBB © 2000, 2002, 2005, 2007 phpBB Group