\m/ 80's metal \m/

Информационно-аналитический форум "80 см пыли" (In Search We Trust) "У нас никто никуда не спешит"
Me For You - http://me-4u.com
It is currently 21 Nov 2018

All times are UTC + 3 hours

Spoiler
Chat - temporary registration for foreign users (please leave your application here)







Post new topic Reply to topic  [ 52 posts ]  Go to page Previous  1, 2, 3
Author Message
 
PostPosted: 21 May 2009 
Хиппей (support team)
User avatar
Joined: 30 Jul 2007
Posts: 108243
Lоcаtion: Киев (Kyiv, UA)
Age: 45
Name: Andrey
sirriys wrote:
1980 - Dog Soldier - запрос ещё актуален ?

Да, конечно :dance:

_________________


Top
 Profile E-mail  
 
 
PostPosted: 21 May 2009 
А может смените мне статус?..
Joined: 23 Feb 2008
Posts: 723
Lоcаtion: ленинградская обл
Age: 58
Name: олег
1980 - Dog Soldier

256 kb/s 65,8 mb

картинки не нашол - трек-лист написать не успею на работу надо бежать

http://ifolder.ru/12224224


Top
 Profile  
 
 
PostPosted: 21 May 2009 
А может смените мне статус?..
Joined: 23 Feb 2008
Posts: 723
Lоcаtion: ленинградская обл
Age: 58
Name: олег
http://batzbatz.com/hardrock/47330-wint ... -1980.html

отсюда качал там и трек-лист облога


Top
 Profile  
 
 
PostPosted: 21 May 2009 
Хиппей (support team)
User avatar
Joined: 30 Jul 2007
Posts: 108243
Lоcаtion: Киев (Kyiv, UA)
Age: 45
Name: Andrey
Спасибо =))) :thanx:

_________________


Top
 Profile E-mail  
 
 
PostPosted: 22 May 2009 
Труъ
Joined: 02 Jul 2008
Posts: 144
Lоcаtion: воронеж
Age: 61
Name: .
Scatterbrain wrote:
[b]Winterhawk - 1978 - There & Back Again (Live @ The Aragon) [320]


Он концертный ?


Top
 Profile  
 
 
PostPosted: 22 May 2009 
Почётный металлург
User avatar
Joined: 15 Sep 2007
Posts: 4357
Lоcаtion: Хабаровск
Age: 58
Name: чуть выше
sirriys
Премного благодарен!!! :thanx:

_________________
Коль будешь людей ты ослами честить,
тебе человеком меж них не прослыть!
(Саади, персидский поэт, 13в.)


Top
 Profile  
 
 
PostPosted: 22 May 2009 
Хиппей (support team)
User avatar
Joined: 30 Jul 2007
Posts: 108243
Lоcаtion: Киев (Kyiv, UA)
Age: 45
Name: Andrey
boughran wrote:
Он концертный ?

Угу, там же указано :umnik:

_________________


Top
 Profile E-mail  
 
 
PostPosted: 13 Sep 2009 
хард н хэвщик (support team)
User avatar
Joined: 02 Jun 2008
Posts: 16880
Lоcаtion: Н.Новгород
Age: 31
Name: Артем
Сереж, что осталось искать?


Top
 Profile  
 
 
PostPosted: 16 Sep 2009 
хард н хэвщик (support team)
User avatar
Joined: 02 Jun 2008
Posts: 16880
Lоcаtion: Н.Новгород
Age: 31
Name: Артем
ок, закрываем тему :dance:


Top
 Profile  
 
 
PostPosted: 02 Sep 2011 
Почётный металлург
User avatar
Joined: 15 Sep 2007
Posts: 4357
Lоcаtion: Хабаровск
Age: 58
Name: чуть выше
WINTERHAWK - REVIVAL 1982 обнаружился на бацбац. Причем лососевый!!! У кого нет налетай.
http://batzbatz.com/hardrock/78939-wint ... -1982.html

_________________
Коль будешь людей ты ослами честить,
тебе человеком меж них не прослыть!
(Саади, персидский поэт, 13в.)


Top
 Profile  
 
 
PostPosted: 04 Sep 2011 
Хиппей (support team)
User avatar
Joined: 30 Jul 2007
Posts: 108243
Lоcаtion: Киев (Kyiv, UA)
Age: 45
Name: Andrey
http://rutracker.org/forum/viewtopic.php?t=3673162

_________________


Top
 Profile E-mail  
 
 
PostPosted: 04 Sep 2011 
Хиппей (support team)
User avatar
Joined: 30 Jul 2007
Posts: 108243
Lоcаtion: Киев (Kyiv, UA)
Age: 45
Name: Andrey
mirror: MultiUp l Narod

Winterhawk - 1982 - Revival (reissued 2006) [flac]

Attachment:
front.jpg
front.jpg [ 5.86 MiB | Viewed 149 times ]


log
Exact Audio Copy V0.99 prebeta 4 from 23. January 2008

EAC extraction logfile from 31. August 2010, 22:43

Winterhawk / Revival

Used drive : Optiarc DVD+-RW ND-3570A Adapter: 0 ID: 0

Read mode : Secure
Utilize accurate stream : Yes
Defeat audio cache : Yes
Make use of C2 pointers : No

Read offset correction : 48
Overread into Lead-In and Lead-Out : No
Fill up missing offset samples with silence : Yes
Delete leading and trailing silent blocks : No
Null samples used in CRC calculations : Yes
Used interface : Native Win32 interface for Win NT & 2000
Gap handling : Appended to previous track

Used output format : User Defined Encoder
Selected bitrate : 1024 kBit/s
Quality : High
Add ID3 tag : No
Command line compressor : C:\Program Files\Exact Audio Copy\Flac\flac.exe
Additional command line options : -8 -V -T "ARTIST=%a" -T "TITLE=%t" -T "ALBUM=%g" -T "DATE=%y" -T "TRACKNUMBER=%n" -T "GENRE=%m" -T "COMMENT=EAC FLAC -8" %s


TOC of the extracted CD

Track | Start | Length | Start sector | End sector
---------------------------------------------------------
1 | 0:00.00 | 3:45.66 | 0 | 16940
2 | 3:45.66 | 5:29.26 | 16941 | 41641
3 | 9:15.17 | 7:24.30 | 41642 | 74971
4 | 16:39.47 | 5:40.35 | 74972 | 100506
5 | 22:20.07 | 6:09.65 | 100507 | 128246
6 | 28:29.72 | 5:09.68 | 128247 | 151489
7 | 33:39.65 | 9:28.26 | 151490 | 194115


Track 1

Filename G:\MY Music\EAC\01 - Intro.wav

Pre-gap length 0:00:02.00

Peak level 100.0 %
Track quality 100.0 %
Test CRC B4F5DAEE
Copy CRC B4F5DAEE
Accurately ripped (confidence 1) [49CCD24B]
Copy OK

Track 2

Filename G:\MY Music\EAC\02 - Sanctuary.wav

Peak level 100.0 %
Track quality 100.0 %
Test CRC 4ECDEE7E
Copy CRC 4ECDEE7E
Accurately ripped (confidence 1) [41645860]
Copy OK

Track 3

Filename G:\MY Music\EAC\03 - Period of Change.wav

Peak level 100.0 %
Track quality 100.0 %
Test CRC 5B43D4A8
Copy CRC 5B43D4A8
Accurately ripped (confidence 1) [63B7D178]
Copy OK

Track 4

Filename G:\MY Music\EAC\04 - Can't See the Forest for the Trees.wav

Peak level 100.0 %
Track quality 100.0 %
Test CRC 0F5A38E5
Copy CRC 0F5A38E5
Accurately ripped (confidence 1) [FF038FB3]
Copy OK

Track 5

Filename G:\MY Music\EAC\05 - Revival.wav

Peak level 100.0 %
Track quality 100.0 %
Test CRC 4211CE8A
Copy CRC 4211CE8A
Accurately ripped (confidence 1) [83CC61DC]
Copy OK

Track 6

Filename G:\MY Music\EAC\06 - Ace in the Hole.wav

Peak level 100.0 %
Track quality 100.0 %
Test CRC 4E300D9A
Copy CRC 4E300D9A
Accurately ripped (confidence 1) [2ED3EAA2]
Copy OK

Track 7

Filename G:\MY Music\EAC\07 - Free to Live.wav

Peak level 100.0 %
Track quality 100.0 %
Test CRC A6B78086
Copy CRC A6B78086
Accurately ripped (confidence 1) [E963754C]
Copy OK


All tracks accurately ripped

No errors occurred

End of status report

cue
REM GENRE "Hard Rock"
REM DATE 2006
REM DISCID 390A1C07
REM COMMENT "ExactAudioCopy v0.99pb4"
PERFORMER "Winterhawk"
TITLE "Revival"
FILE "01 - Intro.wav" WAVE
TRACK 01 AUDIO
TITLE "Intro"
PERFORMER "Winterhawk"
INDEX 01 00:00:00
FILE "02 - Sanctuary.wav" WAVE
TRACK 02 AUDIO
TITLE "Sanctuary"
PERFORMER "Winterhawk"
INDEX 01 00:00:00
FILE "03 - Period of Change.wav" WAVE
TRACK 03 AUDIO
TITLE "Period of Change"
PERFORMER "Winterhawk"
INDEX 01 00:00:00
FILE "04 - Can't See the Forest for the Trees.wav" WAVE
TRACK 04 AUDIO
TITLE "Can't See the Forest for the Trees"
PERFORMER "Winterhawk"
INDEX 01 00:00:00
FILE "05 - Revival.wav" WAVE
TRACK 05 AUDIO
TITLE "Revival"
PERFORMER "Winterhawk"
INDEX 01 00:00:00
FILE "06 - Ace in the Hole.wav" WAVE
TRACK 06 AUDIO
TITLE "Ace in the Hole"
PERFORMER "Winterhawk"
INDEX 01 00:00:00
FILE "07 - Free to Live.wav" WAVE
TRACK 07 AUDIO
TITLE "Free to Live"
PERFORMER "Winterhawk"
INDEX 01 00:00:00

_________________


Top
 Profile E-mail  
 
Display posts from previous:  Sort by  
Post new topic Reply to topic  [ 52 posts ]  Go to page Previous  1, 2, 3

All times are UTC + 3 hours


Who is online

Users browsing this forum: No registered users and 3 guests


You cannot post new topics in this forum
You cannot reply to topics in this forum
You cannot edit your posts in this forum
You cannot delete your posts in this forum
You cannot post attachments in this forum

Search for:
Яндекс.Метрика
Powered by phpBB © 2000, 2002, 2005, 2007 phpBB Group