\m/ 80's metal \m/

Информационно-аналитический форум "80 см пыли" (In Search We Trust) "У нас никто никуда не спешит"
Me For You - http://me-4u.com
It is currently 13 Nov 2018

All times are UTC + 3 hours

Spoiler
Chat - temporary registration for foreign users (please leave your application here)







Post new topic Reply to topic  [ 8 posts ] 
Author Message
 
PostPosted: 06 May 2016 
Генеральный thrasher
User avatar
Joined: 03 Oct 2008
Posts: 3495
Lоcаtion: Ханты-Мансийский АО
Age: 43
Name: Сергей
Дебютный полнометражник итальянцев.Если материал придётся по вкусу,демку 2011 года можно забрать на бэндкампе.

Image

Year:2014
Style:Thrash Metal
Country:Italy
Archive:Flac+Cue+Log+Scans
Size:263Mb
Source:my CD
Label:Earthquake Terror Noise

Line-Up:
Giorgio Ossola - vocals
Federico Colombo - bass,vocals
Davide Guzzetti - drums
Lorenzo Gagliardi - guitars
Andrea "Angus" Collaro - guitars

Tracklist:
01. Intro 01:12
02. Checkmate for Mankind 05:31
03. The Age of False Innocence 03:40
04. Cursed 04:40
05. Relentless Possession 05:03
06. Pulse of Existence 03:52
07. Goatspel 10:15

"Cue"
REM GENRE "Thrash Metal"
REM DATE 2014
REM DISCID 42080107
REM COMMENT "ExactAudioCopy v1.1"
PERFORMER "Warstorm"
TITLE "Goatspel"
FILE "Warstorm - Goatspel.flac" WAVE
TRACK 01 AUDIO
TITLE "Intro"
PERFORMER "Warstorm"
INDEX 01 00:00:00
TRACK 02 AUDIO
TITLE "Checkmate for Mankind"
PERFORMER "Warstorm"
INDEX 01 01:11:33
TRACK 03 AUDIO
TITLE "The Age of False Innocence"
PERFORMER "Warstorm"
INDEX 01 06:42:02
TRACK 04 AUDIO
TITLE "Cursed"
PERFORMER "Warstorm"
INDEX 01 10:21:22
TRACK 05 AUDIO
TITLE "Relentless Possession"
PERFORMER "Warstorm"
INDEX 01 15:01:18
TRACK 06 AUDIO
TITLE "Pulse of Existence"
PERFORMER "Warstorm"
INDEX 01 20:03:20
TRACK 07 AUDIO
TITLE "Goatspel"
PERFORMER "Warstorm"
INDEX 01 23:55:10

"Log"
Exact Audio Copy V1.1 from 23. June 2015

Отчёт EAC об извлечении, выполненном 28. апреля 2016, 10:26

Warstorm / Goatspel

Дисковод: HL-DT-STDVDRAM GTA0N Adapter: 1 ID: 0

Режим чтения : Достоверность
Использование точного потока : Да
Отключение кэша аудио : Да
Использование указателей C2 : Нет

Коррекция смещения при чтении : 102
Способность читать области Lead-in и Lead-out : Нет
Заполнение пропущенных сэмплов тишиной : Да
Удаление блоков с тишиной в начале и конце : Нет
При вычислениях CRC использовались нулевые сэмплы : Да
Интерфейс : Встроенный Win32-интерфейс для Win NT/2000

Выходной формат : Пользовательский кодировщик
Выбранный битрейт : 768 kBit/s
Качество : Высокий
Добавление ID3-тега : Нет
Утилита сжатия : C:\Program Files (x86)\Exact Audio Copy\FLAC\FLAC.EXE
Дополнительные параметры : -6 -V -T "ARTIST=%artist%" -T "TITLE=%title%" -T "ALBUM=%albumtitle%" -T "DATE=%year%" -T "TRACKNUMBER=%tracknr%" -T "GENRE=%genre%" -T "COMMENT=%comment%" -T "BAND=%albuminterpret%" -T "ALBUMARTIST=%albuminterpret%" -T "COMPOSER=%composer%" %haslyrics%--tag-from-file=LYRICS="%lyricsfile%"%haslyrics% -T "DISCNUMBER=%cdnumber%" -T "TOTALDISCS=%totalcds%" -T "TOTALTRACKS=%numtracks%" %hascover%--picture="%coverfile%"%hascover% %source% -o %dest%


TOC извлечённого CD

Трек | Старт | Длительность | Начальный сектор | Конечный сектор
---------------------------------------------------------------------
1 | 0:00.00 | 1:11.33 | 0 | 5357
2 | 1:11.33 | 5:30.44 | 5358 | 30151
3 | 6:42.02 | 3:39.20 | 30152 | 46596
4 | 10:21.22 | 4:39.71 | 46597 | 67592
5 | 15:01.18 | 5:02.02 | 67593 | 90244
6 | 20:03.20 | 3:51.65 | 90245 | 107634
7 | 23:55.10 | 10:14.49 | 107635 | 153733


Характеристики диапазона извлечения и сообщения об ошибках

Выбранный диапазон

Имя файла C:\Users\магазин\Music\Warstorm - Goatspel.wav

Пиковый уровень 98.8 %
Скорость извлечения 3.6 X
Качество диапазона 99.9 %
CRC копии 58407E8B
Копирование... OK

Ошибок не произошло


AccurateRip: сводка

Трек 1 отсутствует в базе данных
Трек 2 отсутствует в базе данных
Трек 3 отсутствует в базе данных
Трек 4 отсутствует в базе данных
Трек 5 отсутствует в базе данных
Трек 6 отсутствует в базе данных
Трек 7 отсутствует в базе данных

Ни одного трека нет в базе AccurateRip

Конец отчёта

---- CUETools DB Plugin V2.1.6

[CTDB TOCID: fiUUsRB1n494HqHDGPvkxs5xQi0-] disk not present in database
Submit result: fiUUsRB1n494HqHDGPvkxs5xQi0- has been uploaded


Goatspel


Top
 Profile  
 
 
PostPosted: 06 May 2016 
Хиппей (support team)
User avatar
Joined: 30 Jul 2007
Posts: 107907
Lоcаtion: Киев (Kyiv, UA)
Age: 45
Name: Andrey
:thanx:

_________________


Top
 Profile E-mail  
 
 
PostPosted: 06 May 2016 
Хиппей (support team)
User avatar
Joined: 30 Jul 2007
Posts: 107907
Lоcаtion: Киев (Kyiv, UA)
Age: 45
Name: Andrey
thorbeorn wrote:
демку 2011 года можно забрать на бэндкампе.

:thanx: Грех уже сейчас её не забрать оттуда :lloo:

_________________


Top
 Profile E-mail  
 
 
PostPosted: 06 May 2016 
Прокъмитолист
User avatar
Joined: 12 Aug 2007
Posts: 6500
Lоcаtion: Санктъ-Петербуркъ
Age: 51
Name: Олекъ
:thanx:

_________________
прокъметол - это музыко, от которово есть прок (ы)


Top
 Profile  
 
 
PostPosted: 06 May 2016 
Генеральный thrasher
User avatar
Joined: 03 Oct 2008
Posts: 3495
Lоcаtion: Ханты-Мансийский АО
Age: 43
Name: Сергей
По материалу кто-нибудь выскажется?Говно или добротный трэш?


Top
 Profile  
 
 
PostPosted: 06 May 2016 
Прокъмитолист
User avatar
Joined: 12 Aug 2007
Posts: 6500
Lоcаtion: Санктъ-Петербуркъ
Age: 51
Name: Олекъ
я, Серёг, пока все в "закрома" качаю. когда дойдут уши послушать - сказать сложно :vic:

_________________
прокъметол - это музыко, от которово есть прок (ы)


Top
 Profile  
 
 
PostPosted: 06 May 2016 
Генеральный thrasher
User avatar
Joined: 03 Oct 2008
Posts: 3495
Lоcаtion: Ханты-Мансийский АО
Age: 43
Name: Сергей
Олег,я ещё целую пачку итальянских трэшеров купил!Ты давай слушай!И тёзка мой splatty чего то молчит... :vic:


Top
 Profile  
 
 
PostPosted: 06 May 2016 
Я набрал 1000 сообщений!
Joined: 09 Jul 2008
Posts: 2459
Age: 45
Name: Сергей
не понравилось
ребята играть, конечно, умеют и любят, но очень уж они трэш, если так можно выразиться, постоянная ломка ритма лично меня не вдохновляет
плюс заигрывания с речитативом явно лишние, все таки не рэп лабают
ну и начало первой песни - это конечно проверка на прочность ) рука потянулась вырубить это зло ещё тогда ) но я её зачем-то удержал..


Top
 Profile  
 
Display posts from previous:  Sort by  
Post new topic Reply to topic  [ 8 posts ] 

All times are UTC + 3 hours


Who is online

Users browsing this forum: No registered users and 5 guests


You cannot post new topics in this forum
You cannot reply to topics in this forum
You cannot edit your posts in this forum
You cannot delete your posts in this forum
You cannot post attachments in this forum

Search for:
Яндекс.Метрика
Powered by phpBB © 2000, 2002, 2005, 2007 phpBB Group