\m/ 80's metal \m/

Информационно-аналитический форум "80 см пыли" (In Search We Trust) "У нас никто никуда не спешит"
Me For You - http://me-4u.com
It is currently 21 Nov 2018

All times are UTC + 3 hours

Spoiler
Chat - temporary registration for foreign users (please leave your application here)







Post new topic Reply to topic  [ 1 post ] 
Author Message
 
PostPosted: 15 Mar 2016 
Генеральный thrasher
User avatar
Joined: 03 Oct 2008
Posts: 3510
Lоcаtion: Ханты-Мансийский АО
Age: 43
Name: Сергей
Может кому-то нужны данные переиздания...

Image

Year:1986 (2013 Rei-ssue)
Style:Power/Speed/Thrash Metal
Country:U.S.A.
Archive:Flac+Cue+Log+Scans
Size:365Mb
Source:my CD
Label:Stormspell Records
Catalog ID:SSR - DL 103 -1

Line-Up:
Gary Golwitzer - vocals
Scott Nyquist - guitars
Rick Rios - drums
Mike Nyrkkanen - guitars
Gary Modica - bass

Tracklist:
01. In the Wake 03:59
02. Children of the Wicked 03:19
03. What's Your Game 04:07
04. Abuse It (Till It Bleeds) 04:39
05. Bones 05:06
06. Fanatics 03:46
07. Fallen Angel 04:03
08. Machine 04:55
09. Vigilante Killer 04:17
10. Breakdown 04:04
11. Sudden Death 03:39

"Cue"
REM GENRE "Power/Speed/Thrash Metal"
REM DATE 1988
REM DISCID 930ABB0B
REM COMMENT "ExactAudioCopy v0.99pb5"
PERFORMER "Wrath"
TITLE "Fit Of Anger"
FILE "Wrath - Fit of Anger.flac" WAVE
TRACK 01 AUDIO
TITLE "In The Wake"
PERFORMER "Wrath"
FLAGS DCP
INDEX 01 00:00:00
TRACK 02 AUDIO
TITLE "Children of the Wicked"
PERFORMER "Wrath"
FLAGS DCP
INDEX 01 03:58:53
TRACK 03 AUDIO
TITLE "What's Your Game"
PERFORMER "Wrath"
FLAGS DCP
INDEX 01 07:16:65
TRACK 04 AUDIO
TITLE "Abuse It (Till It Bleeds)"
PERFORMER "Wrath"
FLAGS DCP
INDEX 01 11:23:35
TRACK 05 AUDIO
TITLE "Bones"
PERFORMER "Wrath"
FLAGS DCP
INDEX 01 16:01:50
TRACK 06 AUDIO
TITLE "Fanatics"
PERFORMER "Wrath"
FLAGS DCP
INDEX 01 21:07:26
TRACK 07 AUDIO
TITLE "Fallen Angel"
PERFORMER "Wrath"
FLAGS DCP
INDEX 01 24:52:31
TRACK 08 AUDIO
TITLE "Machine"
PERFORMER "Wrath"
FLAGS DCP
INDEX 01 28:54:55
TRACK 09 AUDIO
TITLE "Vigilante Killer"
PERFORMER "Wrath"
FLAGS DCP
INDEX 01 33:48:59
TRACK 10 AUDIO
TITLE "Breakdown"
PERFORMER "Wrath"
FLAGS DCP
INDEX 01 38:05:48
TRACK 11 AUDIO
TITLE "Sudden Death"
PERFORMER "Wrath"
FLAGS DCP
INDEX 01 42:08:66

"Log"
Exact Audio Copy V0.99 prebeta 5 from 4. May 2009

Отчёт EAC об извлечении, выполненном 14. июня 2014, 16:39

Wrath / Fit Of Anger

Дисковод: MATSHITADVD-RAM UJ8A0AS Adapter: 0 ID: 1

Режим чтения : Достоверность
Использование точного потока : Да
Отключение кэша аудио : Да
Использование указателей C2 : Нет

Коррекция смещения при чтении : 102
Способность читать области Lead-in и Lead-out : Нет
Заполнение пропущенных сэмплов тишиной : Да
Удаление блоков с тишиной в начале и конце : Нет
При вычислениях CRC использовались нулевые сэмплы : Да
Интерфейс : Встроенный Win32-интерфейс для Win NT/2000

Выходной формат : Пользовательский кодировщик
Выбранный битрейт : 1024 kBit/s
Качество : Высокий
Добавление ID3-тэга : Нет
Утилита сжатия : C:\Program Files\Exact Audio Copy\FLAC\FLAC.EXE
Дополнительные параметры : -6 -V -T "ARTIST=%a" -T "TITLE=%t" -T "ALBUM=%g" -T "DATE=%y" -T "TRACKNUMBER=%n" -T "GENRE=%m" -T "COMMENT=%e" %s -o %d


TOC извлечённого CD

Трек | Старт | Длительность | Начальный сектор | Конечный сектор
---------------------------------------------------------------------
1 | 0:00.00 | 3:58.53 | 0 | 17902
2 | 3:58.53 | 3:18.12 | 17903 | 32764
3 | 7:16.65 | 4:06.45 | 32765 | 51259
4 | 11:23.35 | 4:38.15 | 51260 | 72124
5 | 16:01.50 | 5:05.51 | 72125 | 95050
6 | 21:07.26 | 3:45.05 | 95051 | 111930
7 | 24:52.31 | 4:02.24 | 111931 | 130104
8 | 28:54.55 | 4:54.04 | 130105 | 152158
9 | 33:48.59 | 4:16.64 | 152159 | 171422
10 | 38:05.48 | 4:03.18 | 171423 | 189665
11 | 42:08.66 | 3:38.46 | 189666 | 206061


Характеристики диапазона извлечения и сообщения об ошибках

Выбранный диапазон

Имя файла C:\Users\эксперт\Music\Wrath - Fit of Anger.wav

Пиковый уровень 98.8 %
Качество диапазона 99.9 %
CRC копии 0633E2B4
Копирование... OK

Ошибок не произошло


AccurateRip: сводка

Трек 1 нет в базе данных
Трек 2 нет в базе данных
Трек 3 нет в базе данных
Трек 4 нет в базе данных
Трек 5 нет в базе данных
Трек 6 нет в базе данных
Трек 7 нет в базе данных
Трек 8 нет в базе данных
Трек 9 нет в базе данных
Трек 10 нет в базе данных
Трек 11 нет в базе данных

Ни одного трека нет в базе AccurateRip

Конец отчёта


Fit Of Anger

Image

Year:1987 (2013 Re-Issue)
Style:Power/Speed/Thrash Metal
Country:U.S.A.
Archive:Flac+Cue+Log+Scans
Size:352Mb
Source:my CD
Label:Stormspell Records
Catalog ID:SSR - DL 103 - 2

Line-Up:
Gary Golwitzer - vocals
Gary Modica - bass
Mike Fron - drums
Scott Nyquist - guitars
Mike Nyrkkanen - guitars

Tracklist:
01. R.I.P. (Ripped Into Pieces) 03:47
02. Mutants 06:07
03. Hell Is Full 05:51
04. Painless 05:53
05. Fear Itself 04:38
06. Sudden Death 03:24
07. Incineration / Caustic Sleep 06:53
08. When Worlds Collide 05:42
09. Victims in the Void 03:34

"Cue"
REM GENRE "Power/Speed/Thrash Metal"
REM DATE 1987
REM DISCID 8D0AB909
REM COMMENT "ExactAudioCopy v0.99pb5"
PERFORMER "Wrath"
TITLE "Nothing To Fear"
FILE "Wrath - Nothing To Fear.flac" WAVE
TRACK 01 AUDIO
TITLE "R.I.P (Ripped Into Pieces)"
PERFORMER "Wrath"
INDEX 01 00:00:00
TRACK 02 AUDIO
TITLE "Mutants"
PERFORMER "Wrath"
INDEX 01 03:46:52
TRACK 03 AUDIO
TITLE "Hell is Full"
PERFORMER "Wrath"
INDEX 01 09:53:27
TRACK 04 AUDIO
TITLE "Painless"
PERFORMER "Wrath"
INDEX 01 15:44:02
TRACK 05 AUDIO
TITLE "Fear Itself"
PERFORMER "Wrath"
INDEX 01 21:36:24
TRACK 06 AUDIO
TITLE "Sudden Death"
PERFORMER "Wrath"
INDEX 01 26:13:49
TRACK 07 AUDIO
TITLE "Incineration/Caustic Sleep"
PERFORMER "Wrath"
INDEX 01 29:37:42
TRACK 08 AUDIO
TITLE "When Worlds Collide"
PERFORMER "Wrath"
INDEX 01 36:30:31
TRACK 09 AUDIO
TITLE "Victims in the Void"
PERFORMER "Wrath"
INDEX 01 42:11:64

"Log"
Exact Audio Copy V0.99 prebeta 5 from 4. May 2009

Отчёт EAC об извлечении, выполненном 14. июня 2014, 13:48

Wrath / Nothing To Fear

Дисковод: MATSHITADVD-RAM UJ8A0AS Adapter: 0 ID: 1

Режим чтения : Достоверность
Использование точного потока : Да
Отключение кэша аудио : Да
Использование указателей C2 : Нет

Коррекция смещения при чтении : 102
Способность читать области Lead-in и Lead-out : Нет
Заполнение пропущенных сэмплов тишиной : Да
Удаление блоков с тишиной в начале и конце : Нет
При вычислениях CRC использовались нулевые сэмплы : Да
Интерфейс : Встроенный Win32-интерфейс для Win NT/2000

Выходной формат : Пользовательский кодировщик
Выбранный битрейт : 1024 kBit/s
Качество : Высокий
Добавление ID3-тэга : Нет
Утилита сжатия : C:\Program Files\Exact Audio Copy\FLAC\FLAC.EXE
Дополнительные параметры : -6 -V -T "ARTIST=%a" -T "TITLE=%t" -T "ALBUM=%g" -T "DATE=%y" -T "TRACKNUMBER=%n" -T "GENRE=%m" -T "COMMENT=%e" %s -o %d


TOC извлечённого CD

Трек | Старт | Длительность | Начальный сектор | Конечный сектор
---------------------------------------------------------------------
1 | 0:00.00 | 3:46.52 | 0 | 17001
2 | 3:46.52 | 6:06.50 | 17002 | 44501
3 | 9:53.27 | 5:50.50 | 44502 | 70801
4 | 15:44.02 | 5:52.22 | 70802 | 97223
5 | 21:36.24 | 4:37.25 | 97224 | 118023
6 | 26:13.49 | 3:23.68 | 118024 | 133316
7 | 29:37.42 | 6:52.64 | 133317 | 164280
8 | 36:30.31 | 5:41.33 | 164281 | 189888
9 | 42:11.64 | 3:33.43 | 189889 | 205906


Характеристики диапазона извлечения и сообщения об ошибках

Выбранный диапазон

Имя файла C:\Users\эксперт\Music\Wrath - Nothing To Fear.wav

Пиковый уровень 98.8 %
Качество диапазона 100.0 %
CRC копии 3D3EBB15
Копирование... OK

Ошибок не произошло


AccurateRip: сводка

Трек 1 нет в базе данных
Трек 2 нет в базе данных
Трек 3 нет в базе данных
Трек 4 нет в базе данных
Трек 5 нет в базе данных
Трек 6 нет в базе данных
Трек 7 нет в базе данных
Трек 8 нет в базе данных
Трек 9 нет в базе данных

Ни одного трека нет в базе AccurateRip

Конец отчёта


Nothing To Fear


Top
 Profile  
 
Display posts from previous:  Sort by  
Post new topic Reply to topic  [ 1 post ] 

All times are UTC + 3 hours


Who is online

Users browsing this forum: No registered users and 1 guest


You cannot post new topics in this forum
You cannot reply to topics in this forum
You cannot edit your posts in this forum
You cannot delete your posts in this forum
You cannot post attachments in this forum

Search for:
Яндекс.Метрика
Powered by phpBB © 2000, 2002, 2005, 2007 phpBB Group