\m/ 80's metal \m/

Информационно-аналитический форум "80 см пыли" (In Search We Trust) "У нас никто никуда не спешит"
Me For You - http://me-4u.com
It is currently 21 Nov 2018

All times are UTC + 3 hours

Spoiler
Chat - temporary registration for foreign users (please leave your application here)







Post new topic Reply to topic  [ 4 posts ] 
Author Message
 
PostPosted: 11 Oct 2015 
Хиппей (support team)
User avatar
Joined: 30 Jul 2007
Posts: 108237
Lоcаtion: Киев (Kyiv, UA)
Age: 45
Name: Andrey
Witchfynde - 1980 - Give 'Em Hell (Japan 1st press 1992)

Image Image

1. Ready to Roll - 04:15
2. The Divine Victim - 05:03
3. Leaving Nadir - 06:12
4. Gettin' Heavy - 03:52
5. Give 'Em Hell - 04:03
6. Unto the Ages of the Ages - 08:54
7. Pay Now Love Later - 03:33

mirror: iFolder l Narod l M-Cloud

Source: http://rutracker.org/forum/viewtopic.php?t=5088719

Улыбательно и наивно сейчас слушается подобная музыка... :pardon:

Image Image Image

log
Exact Audio Copy V1.0 beta 3 from 29. August 2011

EAC extraction logfile from 1. October 2015, 12:10

Witchfynde / Give 'Em Hell (Japan 1st press 1992))

Used drive : Optiarc DVD RW AD-7260S Adapter: 1 ID: 1

Read mode : Secure
Utilize accurate stream : Yes
Defeat audio cache : Yes
Make use of C2 pointers : No

Read offset correction : 48
Overread into Lead-In and Lead-Out : No
Fill up missing offset samples with silence : Yes
Delete leading and trailing silent blocks : No
Null samples used in CRC calculations : Yes
Used interface : Native Win32 interface for Win NT & 2000

Used output format : Internal WAV Routines
Sample format : 44.100 Hz; 16 Bit; Stereo


TOC of the extracted CD

Track | Start | Length | Start sector | End sector
---------------------------------------------------------
1 | 0:00.00 | 4:12.22 | 0 | 18921
2 | 4:12.22 | 5:01.53 | 18922 | 41549
3 | 9:14.00 | 6:11.17 | 41550 | 69391
4 | 15:25.17 | 3:47.58 | 69392 | 86474
5 | 19:13.00 | 4:02.45 | 86475 | 104669
6 | 23:15.45 | 8:52.37 | 104670 | 144606
7 | 32:08.07 | 4:03.65 | 144607 | 162896


Range status and errors

Selected range

Filename C:\Мои документы\Witchfynde - 1980 - Give 'Em Hell (Japan 1st press 1992)).wav

Peak level 100.0 %
Extraction speed 3.4 X
Range quality 99.9 %
Test CRC D1E09E84
Copy CRC D1E09E84
Copy OK

No errors occurred


AccurateRip summary

Track 1 accurately ripped (confidence 1) [39BE23D2] (AR v2)
Track 2 accurately ripped (confidence 1) [8A270D36] (AR v2)
Track 3 accurately ripped (confidence 1) [66D179EB] (AR v2)
Track 4 accurately ripped (confidence 1) [52109ED4] (AR v2)
Track 5 accurately ripped (confidence 1) [5D9B88DC] (AR v2)
Track 6 accurately ripped (confidence 1) [A26BA608] (AR v2)
Track 7 accurately ripped (confidence 1) [CC94E34A] (AR v2)

All tracks accurately ripped

End of status report

---- CUETools DB Plugin V2.1.4

[CTDB TOCID: vnJKvAmteybMnL7sNihNsk7X_rM-] disk not present in database
Submit result: vnJKvAmteybMnL7sNihNsk7X_rM- has been uploaded


==== Log checksum D82B41B9BDC778F630D6D63DB4F678291D899567A15C2C77358A2A06BC1A5469 ====

cue
REM GENRE NWOBHM
REM DATE 1980
REM DISCID 5C087B07
REM COMMENT "ExactAudioCopy v1.0b3"
PERFORMER "Witchfynde"
TITLE "Give 'Em Hell (Japan 1st press 1992))"
FILE "Witchfynde - 1980 - Give 'Em Hell (Japan 1st press 1992)).flac" WAVE
TRACK 01 AUDIO
TITLE "Ready to Roll"
PERFORMER "Witchfynde"
INDEX 01 00:00:00
TRACK 02 AUDIO
TITLE "The Divine Victim"
PERFORMER "Witchfynde"
INDEX 00 04:10:51
INDEX 01 04:12:22
TRACK 03 AUDIO
TITLE "Leaving Nadir"
PERFORMER "Witchfynde"
INDEX 00 09:11:46
INDEX 01 09:14:00
TRACK 04 AUDIO
TITLE "Gettin' Heavy"
PERFORMER "Witchfynde"
INDEX 00 15:23:61
INDEX 01 15:25:17
TRACK 05 AUDIO
TITLE "Give 'Em Hell"
PERFORMER "Witchfynde"
INDEX 00 19:10:21
INDEX 01 19:13:00
TRACK 06 AUDIO
TITLE "Unto the Ages of Ages"
PERFORMER "Witchfynde"
INDEX 00 23:13:51
INDEX 01 23:15:45
TRACK 07 AUDIO
TITLE "Pay Now - Love Later"
PERFORMER "Witchfynde"
INDEX 00 32:04:66
INDEX 01 32:08:07

_________________


Top
 Profile E-mail  
 
 
PostPosted: 12 Oct 2015 
Рарник и трушник
User avatar
Joined: 25 Dec 2009
Posts: 8423
Lоcаtion: Москва
Age: 53
Name: Виталий
Ух ты, классно, даже не знал, что японец существует. :pardon: Спасибо!. :pardon:


Top
 Profile  
 
 
PostPosted: 24 Mar 2016 
А может смените мне статус?..
Joined: 03 Jul 2009
Posts: 825
Lоcаtion: Serbia
Name: Laki
:thanx: :thanx:
Stagefright Japanese press anyone? :dance:


Top
 Profile E-mail  
 
 
PostPosted: 25 Mar 2016 
Хиппей (support team)
User avatar
Joined: 30 Jul 2007
Posts: 108237
Lоcаtion: Киев (Kyiv, UA)
Age: 45
Name: Andrey
:thanx: :thanx:
Stagefright Japanese press anyone? :dance:

:vic:

_________________


Top
 Profile E-mail  
 
Display posts from previous:  Sort by  
Post new topic Reply to topic  [ 4 posts ] 

All times are UTC + 3 hours


Who is online

Users browsing this forum: No registered users and 2 guests


You cannot post new topics in this forum
You cannot reply to topics in this forum
You cannot edit your posts in this forum
You cannot delete your posts in this forum
You cannot post attachments in this forum

Search for:
Яндекс.Метрика
Powered by phpBB © 2000, 2002, 2005, 2007 phpBB Group