\m/ 80's metal \m/

Информационно-аналитический форум "80 см пыли" (In Search We Trust) "У нас никто никуда не спешит"
Me For You - http://me-4u.com
It is currently 21 Nov 2018

All times are UTC + 3 hours

Spoiler
Chat - temporary registration for foreign users (please leave your application here)







Post new topic Reply to topic  [ 6 posts ] 
Author Message
 
PostPosted: 05 Jun 2015 
Я набрал 1000 сообщений!
Joined: 21 Nov 2009
Posts: 1399
Lоcаtion: praga
Age: 48
Name: Сергей
W.A.S.P. - Wild Child (the wild remix)

Image

Side 1:

1 - Wild Child (the wild remix)

Side 2:

1 - Mississippi Queen
2 - L.O.V.E. Machine (live)

http://айфолдер.файлообменник.рф/files/43774394

Обалденный ремикс на мегахит (всех времён и народов):Wild Child.
Какая то проблемка во вставке файла на скачивание. :fingal: :dash:


Top
 Profile E-mail  
 
 
PostPosted: 06 Jun 2015 
Хиппей (support team)
User avatar
Joined: 30 Jul 2007
Posts: 108255
Lоcаtion: Киев (Kyiv, UA)
Age: 45
Name: Andrey
http://rusfolder.com/43774394

_________________


Top
 Profile E-mail  
 
 
PostPosted: 06 Jun 2015 
Хиппей (support team)
User avatar
Joined: 30 Jul 2007
Posts: 108255
Lоcаtion: Киев (Kyiv, UA)
Age: 45
Name: Andrey
:thanx:

Image Image Image Image

mirror: iFolder l Narod l M-Cloud

cue
TITLE "Wild Child"
PERFORMER "W.A.S.P."
FILE "W.A.S.P. - Wild Child (side 1).flac" WAVE
TRACK 01 AUDIO
TITLE "Wild Child (the wild remix)"
PERFORMER ""
INDEX 01 00:00:00
FILE "W.A.S.P. - Wild Child (side 2).flac" WAVE
TRACK 02 AUDIO
TITLE "Mississippi Queen"
PERFORMER ""
INDEX 01 00:00:00
TRACK 03 AUDIO
TITLE "L.O.V.E. Machine (live)"
PERFORMER ""
INDEX 01 03:24:68


Image Image

_________________


Top
 Profile E-mail  
 
 
PostPosted: 06 Jun 2015 
Хиппей (support team)
User avatar
Joined: 30 Jul 2007
Posts: 108255
Lоcаtion: Киев (Kyiv, UA)
Age: 45
Name: Andrey
Красота, тащемта :dance:

_________________


Top
 Profile E-mail  
 
 
PostPosted: 06 Jun 2015 
Я набрал 1000 сообщений!
Joined: 21 Nov 2009
Posts: 1399
Lоcаtion: praga
Age: 48
Name: Сергей
Ну а как ремикс Андрюх?


Top
 Profile E-mail  
 
 
PostPosted: 06 Jun 2015 
Alive Again
User avatar
Joined: 17 Dec 2008
Posts: 4744
Lоcаtion: Курск Воронеж Оскол
Age: 44
Name: Дмитрий
Красота, тащемта :dance:

Согласен.
Quote:
Ну а как ремикс

В оригинале до такой степени всё к месту и от Души, что ремикс интересен, но скорее для любителей WASP. Блэцки безусловно мастерки сделал новую версию, да и остальные песни весёлые, бодрые и очень к месту Image, злодейский смех и слова fucking bitch тоже присутствуют :crazy: , поэтому миник не для галочки, а имеет собственный вес и смысл :lob:
:thanx: за труды!


Top
 Profile E-mail  
 
Display posts from previous:  Sort by  
Post new topic Reply to topic  [ 6 posts ] 

All times are UTC + 3 hours


Who is online

Users browsing this forum: No registered users and 2 guests


You cannot post new topics in this forum
You cannot reply to topics in this forum
You cannot edit your posts in this forum
You cannot delete your posts in this forum
You cannot post attachments in this forum

Search for:
Яндекс.Метрика
Powered by phpBB © 2000, 2002, 2005, 2007 phpBB Group