\m/ 80's metal \m/

Информационно-аналитический форум "80 см пыли" (In Search We Trust) "У нас никто никуда не спешит"
Me For You - http://me-4u.com
It is currently 13 Nov 2018

All times are UTC + 3 hours

Spoiler
Chat - temporary registration for foreign users (please leave your application here)







Post new topic Reply to topic  [ 9 posts ] 
Author Message
 
PostPosted: 13 Feb 2015 
Генеральный thrasher
User avatar
Joined: 03 Oct 2008
Posts: 3495
Lоcаtion: Ханты-Мансийский АО
Age: 43
Name: Сергей
Image

Year:1996
Style:Thrash Metal
Country:Germany
Audio:Flac+Cue+Log+Scans
Size:349Mb
Source:my CD
Label:Steamhammer

Line-Up:
Maurer - bass
Krid - drums
Jan Lamprecht "Jannick" - guitars
Arnie - vocals

Tracklist:
01. Kill Your Enemy 04:42
02. A Matter Of Fact 03:14
03. Die Maschine 05:31
04. Frustration Grows 03:53
05. Outburst Of Rage 03:37
06. The Struggle 05:04
07. Sign Of Hard Times (Cro-Mags Cover) 03:38
08. Stomp 02:41
09. Overrollin' 08:20
10. Kill Your Enemy 2 03:52

"Cue"
REM GENRE "Thrash Metal"
REM DATE 1996
REM DISCID 8D0A800A
REM COMMENT "ExactAudioCopy v0.99pb5"
PERFORMER "Warpath"
TITLE "Kill Your Enemy"
FILE "Warpath - Kill Your Enemy.flac" WAVE
TRACK 01 AUDIO
TITLE "Kill Your Enemy"
PERFORMER "Warpath"
INDEX 00 00:00:00
INDEX 01 00:00:50
TRACK 02 AUDIO
TITLE "A Matter Of Fact"
PERFORMER "Warpath"
INDEX 00 04:43:25
INDEX 01 04:44:50
TRACK 03 AUDIO
TITLE "Die Maschine"
PERFORMER "Warpath"
INDEX 00 07:58:52
INDEX 01 08:00:50
TRACK 04 AUDIO
TITLE "Frustration Grows"
PERFORMER "Warpath"
INDEX 01 13:32:22
TRACK 05 AUDIO
TITLE "Outburst Of Rage"
PERFORMER "Warpath"
INDEX 01 17:25:50
TRACK 06 AUDIO
TITLE "The Struggle"
PERFORMER "Warpath"
INDEX 00 21:02:62
INDEX 01 21:03:62
TRACK 07 AUDIO
TITLE "Sign Of Hard Times"
PERFORMER "Warpath"
INDEX 00 26:07:72
INDEX 01 26:09:50
TRACK 08 AUDIO
TITLE "Stomp"
PERFORMER "Warpath"
INDEX 00 29:48:02
INDEX 01 29:49:50
TRACK 09 AUDIO
TITLE "Overrollin'"
PERFORMER "Warpath"
INDEX 00 32:30:57
INDEX 01 32:32:50
TRACK 10 AUDIO
TITLE "Kill Your Enemy 2"
PERFORMER "Warpath"
INDEX 00 40:53:02
INDEX 01 40:56:50

"Log"
Exact Audio Copy V0.99 prebeta 5 from 4. May 2009

Отчёт EAC об извлечении, выполненном 12. февраля 2015, 17:01

Warpath / Kill Your Enemy

Дисковод: MATSHITADVD-RAM UJ8A0AS Adapter: 0 ID: 1

Режим чтения : Достоверность
Использование точного потока : Да
Отключение кэша аудио : Да
Использование указателей C2 : Нет

Коррекция смещения при чтении : 102
Способность читать области Lead-in и Lead-out : Нет
Заполнение пропущенных сэмплов тишиной : Да
Удаление блоков с тишиной в начале и конце : Нет
При вычислениях CRC использовались нулевые сэмплы : Да
Интерфейс : Встроенный Win32-интерфейс для Win NT/2000

Выходной формат : Пользовательский кодировщик
Выбранный битрейт : 1024 kBit/s
Качество : Высокий
Добавление ID3-тэга : Нет
Утилита сжатия : C:\Program Files\Exact Audio Copy\FLAC\FLAC.EXE
Дополнительные параметры : -6 -V -T "ARTIST=%a" -T "TITLE=%t" -T "ALBUM=%g" -T "DATE=%y" -T "TRACKNUMBER=%n" -T "GENRE=%m" -T "COMMENT=%e" %s -o %d


TOC извлечённого CD

Трек | Старт | Длительность | Начальный сектор | Конечный сектор
---------------------------------------------------------------------
1 | 0:00.50 | 4:44.00 | 50 | 21349
2 | 4:44.50 | 3:16.00 | 21350 | 36049
3 | 8:00.50 | 5:31.47 | 36050 | 60921
4 | 13:32.22 | 3:53.28 | 60922 | 78424
5 | 17:25.50 | 3:38.12 | 78425 | 94786
6 | 21:03.62 | 5:05.63 | 94787 | 117724
7 | 26:09.50 | 3:40.00 | 117725 | 134224
8 | 29:49.50 | 2:43.00 | 134225 | 146449
9 | 32:32.50 | 8:24.00 | 146450 | 184249
10 | 40:56.50 | 3:52.05 | 184250 | 201654


Характеристики диапазона извлечения и сообщения об ошибках

Выбранный диапазон

Имя файла C:\Users\эксперт\Music\Warpath - Kill Your Enemy.wav

Пиковый уровень 99.5 %
Качество диапазона 99.9 %
CRC копии E0551941
Копирование... OK

Ошибок не произошло


AccurateRip: сводка

Трек 1 точное извлечение (доверие 4) [33807293]
Трек 2 точное извлечение (доверие 4) [50BED919]
Трек 3 точное извлечение (доверие 4) [3B49D734]
Трек 4 точное извлечение (доверие 4) [CF8FD0BB]
Трек 5 точное извлечение (доверие 4) [BECA2D0A]
Трек 6 точное извлечение (доверие 4) [B09617F7]
Трек 7 точное извлечение (доверие 4) [74D220F0]
Трек 8 точное извлечение (доверие 4) [61E78A5B]
Трек 9 точное извлечение (доверие 4) [DE4439CC]
Трек 10 точное извлечение (доверие 4) [33C3793C]

Все треки извлечены точно

Конец отчёта


Kill Your Enemy


Top
 Profile  
 
 
PostPosted: 13 Feb 2015 
Генеральный thrasher
User avatar
Joined: 03 Oct 2008
Posts: 3495
Lоcаtion: Ханты-Мансийский АО
Age: 43
Name: Сергей
Двух лосиков здесь уже постил.Добавляю ещё одного :lloo:


Top
 Profile  
 
 
PostPosted: 13 Feb 2015 
\m/ 80 см сала \m/
User avatar
Joined: 12 Mar 2012
Posts: 2589
Age: 25
Name: Nick
:thanx:

_________________
1990 AUROPHON BRAINSTORM (Germany) - lossless
1994 MAUSOLEUM CLASSIX (Belgium-Germany) - lossless
1998 VA - GRIM HARVEST - Complete Metal Massacre Volumes I-XII


Top
 Profile  
 
 
PostPosted: 13 Feb 2015 
А может смените мне статус?..
User avatar
Joined: 02 Feb 2009
Posts: 999
Lоcаtion: из Тулы
Age: 44
Name: Максим
:true: ;)

_________________
КМА


Top
 Profile  
 
 
PostPosted: 13 Feb 2015 
Прокъмитолист
User avatar
Joined: 12 Aug 2007
Posts: 6500
Lоcаtion: Санктъ-Петербуркъ
Age: 51
Name: Олекъ
:thanx:

_________________
прокъметол - это музыко, от которово есть прок (ы)


Top
 Profile  
 
 
PostPosted: 14 Feb 2015 
Alive Again
User avatar
Joined: 17 Dec 2008
Posts: 4740
Lоcаtion: Курск Воронеж Оскол
Age: 44
Name: Дмитрий
:thanx:


Top
 Profile E-mail  
 
 
PostPosted: 14 Feb 2015 
ТрэшЭрос
User avatar
Joined: 18 Jul 2011
Posts: 2296
Lоcаtion: Гулькевичи
Age: 43
Name: Александр
:thanx:

Warpath теперь весь собран! :true:

_________________
Thrash no trash!!!


Top
 Profile E-mail  
 
 
PostPosted: 26 Mar 2017 
Доктор энтомологии
User avatar
Joined: 22 Jan 2009
Posts: 9444
Lоcаtion: Даугавпилс
Age: 43
Name: Алексей
:thanx:

Warpath теперь весь собран! :true:


Свежий есть еще альбом. Эдакий замедленный вариант притрэшованного Моторхеда (нотка в вокализе) с околохардкоровым вязким послевкусием, мне 50 на 50 понраавилось где-то, есть прикольные темы, а есть - лишние


Top
 Profile  
 
 
PostPosted: 26 Mar 2017 
Генеральный thrasher
User avatar
Joined: 03 Oct 2008
Posts: 3495
Lоcаtion: Ханты-Мансийский АО
Age: 43
Name: Сергей
Есть.Покупать не стал.Такой тягомотины давно не слышал!Не стоило и возвращаться.


Top
 Profile  
 
Display posts from previous:  Sort by  
Post new topic Reply to topic  [ 9 posts ] 

All times are UTC + 3 hours


Who is online

Users browsing this forum: No registered users and 3 guests


You cannot post new topics in this forum
You cannot reply to topics in this forum
You cannot edit your posts in this forum
You cannot delete your posts in this forum
You cannot post attachments in this forum

Search for:
Яндекс.Метрика
Powered by phpBB © 2000, 2002, 2005, 2007 phpBB Group