\m/ 80's metal \m/

Информационно-аналитический форум "80 см пыли" (In Search We Trust) "У нас никто никуда не спешит"
Me For You - http://me-4u.com
It is currently 21 Nov 2018

All times are UTC + 3 hours

Spoiler
Chat - temporary registration for foreign users (please leave your application here)







Post new topic Reply to topic  [ 22 posts ]  Go to page 1, 2  Next
Author Message
 
PostPosted: 04 Feb 2015 
\m/ 80 см сала \m/
User avatar
Joined: 12 Mar 2012
Posts: 2589
Age: 25
Name: Nick
Image

Witch Cross - All That's Fit For Fighting (2013)

Hells Headbangers Records, #HELLS 094

CD1 (Fit For Fight 2013 reissue):

1. Night Flight To Tokyo 4:20
2. Face Of A Clown 5:03
3. Rocking The Night Away 5:08
4. Killer Dogs 5:01
5. Fight The Fire 5:19
6. Axe Dance 3:19
7. Light Of A Torch 5:37
8. Alien Savage 6:09

cue
REM GENRE Metal
REM DATE 1984
REM DISCID 6D095F08
REM COMMENT ExactAudioCopy v0.99pb5
PERFORMER "Witch Cross"
TITLE "Fit For Fight (2013 reissue)"
FILE "Witch Cross - Fit For Fight.flac" WAVE
TRACK 01 AUDIO
TITLE "Nightflight To Tokyo"
INDEX 01 00:00:00
TRACK 02 AUDIO
TITLE "Face Of A Clown"
INDEX 01 04:20:54
TRACK 03 AUDIO
TITLE "Rocking The Night Away"
INDEX 01 09:23:65
TRACK 04 AUDIO
TITLE "Killer Dogs"
INDEX 01 14:32:02
TRACK 05 AUDIO
TITLE "Fight The Fire"
INDEX 01 19:34:00
TRACK 06 AUDIO
TITLE "Axe Dance"
INDEX 01 24:53:49
TRACK 07 AUDIO
TITLE "Light Of A Torch"
INDEX 01 28:13:07
TRACK 08 AUDIO
TITLE "Alien Savage"
INDEX 01 33:50:38

log
Exact Audio Copy V0.99 prebeta 5 from 4. May 2009

Отчёт EAC об извлечении, выполненном 9. декабря 2014, 20:22

Witch Cross / Fit For Fight (2013 reissue)

Дисковод: TSSTcorpCDDVDW SH-S203D Adapter: 4 ID: 0

Режим чтения : Достоверность
Использование точного потока : Да
Отключение кэша аудио : Да
Использование указателей C2 : Нет

Коррекция смещения при чтении : 6
Способность читать области Lead-in и Lead-out : Нет
Заполнение пропущенных сэмплов тишиной : Да
Удаление блоков с тишиной в начале и конце : Нет
При вычислениях CRC использовались нулевые сэмплы : Да
Интерфейс : Встроенный Win32-интерфейс для Win NT/2000

Выходной формат : Внутренние WAV-операции
Формат сэмплов : 44.100 Гц; 16 бит; стерео


TOC извлечённого CD

Трек | Старт | Длительность | Начальный сектор | Конечный сектор
---------------------------------------------------------------------
1 | 0:00.00 | 4:20.54 | 0 | 19553
2 | 4:20.54 | 5:03.11 | 19554 | 42289
3 | 9:23.65 | 5:08.12 | 42290 | 65401
4 | 14:32.02 | 5:01.73 | 65402 | 88049
5 | 19:34.00 | 5:19.49 | 88050 | 112023
6 | 24:53.49 | 3:19.33 | 112024 | 126981
7 | 28:13.07 | 5:37.31 | 126982 | 152287
8 | 33:50.38 | 6:09.06 | 152288 | 179968


Характеристики диапазона извлечения и сообщения об ошибках

Выбранный диапазон

Имя файла C:\Users\everhard\Desktop\WC\CD1\Witch Cross - Fit For Fight.wav

Пиковый уровень 100.0 %
Качество диапазона 100.0 %
CRC теста 4E09AC8E
CRC копии 4E09AC8E
Копирование... OK

Ошибок не произошло


AccurateRip: сводка

Трек 1 точное извлечение (доверие 1) [D81A977E]
Трек 2 точное извлечение (доверие 1) [D9F101FF]
Трек 3 точное извлечение (доверие 1) [6C570842]
Трек 4 точное извлечение (доверие 1) [74F79C14]
Трек 5 точное извлечение (доверие 1) [FAB6279B]
Трек 6 точное извлечение (доверие 1) [73E0B14D]
Трек 7 точное извлечение (доверие 1) [996294EB]
Трек 8 точное извлечение (доверие 1) [D20503DF]

Все треки извлечены точно

Конец отчёта


CD3 (single & demos):

1. Are You There 3:39
2. No Angel 3:22
3. Fight The Fire 5:39
4. Nightwind 3:58 Instrumental
5. Hell Is Here To Stay 4:57
6. Fight The Fire 5:17
7. Hell Is Here To Stay 4:44
8. Slaughterhouse Of War 5:39
9. The Stranger Life 5:55
10. Light Of A Torch 5:05
11. Hell On First Floor 4:49
12. Alien Savage 6:01

сue
REM GENRE Heavy Metal
REM DATE 2013
REM DISCID 880DDE0C
REM COMMENT ExactAudioCopy v0.99pb5
PERFORMER "Witch Cross"
TITLE "All That's Fit For Fighting (CD3)"
FILE "Witch Cross - All That's Fit For Fighting (CD3).flac" WAVE
TRACK 01 AUDIO
TITLE "Are You There"
INDEX 01 00:00:00
TRACK 02 AUDIO
TITLE "No Angel"
INDEX 01 03:39:57
TRACK 03 AUDIO
TITLE "Fight The Fire"
INDEX 01 07:01:71
TRACK 04 AUDIO
TITLE "Nightwind"
INDEX 01 12:41:56
TRACK 05 AUDIO
TITLE "Hell Is Here To Stay"
INDEX 01 16:40:34
TRACK 06 AUDIO
TITLE "Fight The Fire"
INDEX 01 21:37:52
TRACK 07 AUDIO
TITLE "Hell Is Here To Stay"
INDEX 01 26:54:68
TRACK 08 AUDIO
TITLE "Slaughterhouse Of War"
INDEX 01 31:39:25
TRACK 09 AUDIO
TITLE "The Stranger Life"
INDEX 01 37:18:64
TRACK 10 AUDIO
TITLE "Light Of A Torch"
INDEX 01 43:14:28
TRACK 11 AUDIO
TITLE "Hell On First Floor"
INDEX 01 48:19:66
TRACK 12 AUDIO
TITLE "Alien Savage"
INDEX 01 53:08:73

log
Exact Audio Copy V0.99 prebeta 5 from 4. May 2009

Отчёт EAC об извлечении, выполненном 9. декабря 2014, 19:45

Witch Cross / All That's Fit For Fighting (CD3)

Дисковод: TSSTcorpCDDVDW SH-S203D Adapter: 4 ID: 0

Режим чтения : Достоверность
Использование точного потока : Да
Отключение кэша аудио : Да
Использование указателей C2 : Нет

Коррекция смещения при чтении : 6
Способность читать области Lead-in и Lead-out : Нет
Заполнение пропущенных сэмплов тишиной : Да
Удаление блоков с тишиной в начале и конце : Нет
При вычислениях CRC использовались нулевые сэмплы : Да
Интерфейс : Встроенный Win32-интерфейс для Win NT/2000

Выходной формат : Внутренние WAV-операции
Формат сэмплов : 44.100 Гц; 16 бит; стерео


TOC извлечённого CD

Трек | Старт | Длительность | Начальный сектор | Конечный сектор
---------------------------------------------------------------------
1 | 0:00.00 | 3:39.57 | 0 | 16481
2 | 3:39.57 | 3:22.14 | 16482 | 31645
3 | 7:01.71 | 5:39.60 | 31646 | 57130
4 | 12:41.56 | 3:58.53 | 57131 | 75033
5 | 16:40.34 | 4:57.18 | 75034 | 97326
6 | 21:37.52 | 5:17.16 | 97327 | 121117
7 | 26:54.68 | 4:44.32 | 121118 | 142449
8 | 31:39.25 | 5:39.39 | 142450 | 167913
9 | 37:18.64 | 5:55.39 | 167914 | 194577
10 | 43:14.28 | 5:05.38 | 194578 | 217490
11 | 48:19.66 | 4:49.07 | 217491 | 239172
12 | 53:08.73 | 6:01.31 | 239173 | 266278


Характеристики диапазона извлечения и сообщения об ошибках

Выбранный диапазон

Имя файла C:\Users\everhard\Desktop\WC\Witch Cross - All That's Fit For Fighting (CD3).wav

Пиковый уровень 100.0 %
Качество диапазона 100.0 %
CRC теста B2804C97
CRC копии B2804C97
Копирование... OK

Ошибок не произошло


AccurateRip: сводка

Трек 1 точность не определена (достоверность 1) [E27B3D2A], AccurateRip вернул [32686829]
Трек 2 точность не определена (достоверность 1) [50B697B0], AccurateRip вернул [8E7D054F]
Трек 3 точность не определена (достоверность 1) [18A01D16], AccurateRip вернул [5178BA42]
Трек 4 точность не определена (достоверность 1) [5E847AB9], AccurateRip вернул [7AA589F7]
Трек 5 точность не определена (достоверность 1) [60D744A1], AccurateRip вернул [07EE590E]
Трек 6 точность не определена (достоверность 1) [E9715839], AccurateRip вернул [39B43BDF]
Трек 7 точность не определена (достоверность 1) [D752E61F], AccurateRip вернул [39A0BBC2]
Трек 8 точность не определена (достоверность 1) [BAF0986F], AccurateRip вернул [8F950D9E]
Трек 9 точность не определена (достоверность 1) [A4D80052], AccurateRip вернул [7796A76B]
Трек 10 точность не определена (достоверность 1) [9498A320], AccurateRip вернул [FB5F3B09]
Трек 11 точность не определена (достоверность 1) [AA7B8046], AccurateRip вернул [BCAFCE2D]
Трек 12 точность не определена (достоверность 1) [AD98481C], AccurateRip вернул [61AA48FC]

Ни один трек не прошёл проверки на точность
В вашей базе может быть иной вариант штамповки диска

Конец отчёта


CD3 (demos):

1. Doctor Jeckyll & Mister Hyde 5:45
2. Chase Away The Shadows 5:19
3. Damn The Clan 4:42
4. Nighthunter 5:22
5. Midnight Mob 4:31
6. Burning On 4:32
7. Killer Dogs (New Version) 4:28
8. No Mercy 5:32
9. Satan's Child 6:06
10. Witch Cross 4:17
11. Rats 5:18
12. Shadow In Your Life 5:33

сue
REM GENRE Heavy Metal
REM DATE 2013
REM DISCID A90E6A0C
REM COMMENT ExactAudioCopy v0.99pb5
PERFORMER "Witch Cross"
TITLE "All That's Fit For Fighting (CD4)"
FILE "Witch Cross - All That's Fit For Fighting (CD4).flac" WAVE
TRACK 01 AUDIO
TITLE "Doctor Jeckyll & Mister Hyde"
INDEX 01 00:00:00
TRACK 02 AUDIO
TITLE "Chase Away The Shadows"
INDEX 01 05:45:42
TRACK 03 AUDIO
TITLE "Damn The Clan"
INDEX 01 11:04:55
TRACK 04 AUDIO
TITLE "Nighthunter"
INDEX 01 15:47:51
TRACK 05 AUDIO
TITLE "Midnight Mob"
INDEX 01 21:09:63
TRACK 06 AUDIO
TITLE "Burning On"
INDEX 01 25:41:53
TRACK 07 AUDIO
TITLE "Killer Dogs (new version)"
INDEX 01 30:13:74
TRACK 08 AUDIO
TITLE "No Mercy"
INDEX 01 34:42:42
TRACK 09 AUDIO
TITLE "Satan's Child "
INDEX 01 40:14:58
TRACK 10 AUDIO
TITLE "Witch Cross"
INDEX 01 46:21:21
TRACK 11 AUDIO
TITLE "Rats"
INDEX 01 50:38:53
TRACK 12 AUDIO
TITLE "Shadow In Your Life"
INDEX 01 55:57:03

log
Exact Audio Copy V0.99 prebeta 5 from 4. May 2009

Отчёт EAC об извлечении, выполненном 9. декабря 2014, 20:04

Witch Cross / All That's Fit For Fighting (CD4)

Дисковод: TSSTcorpCDDVDW SH-S203D Adapter: 4 ID: 0

Режим чтения : Достоверность
Использование точного потока : Да
Отключение кэша аудио : Да
Использование указателей C2 : Нет

Коррекция смещения при чтении : 6
Способность читать области Lead-in и Lead-out : Нет
Заполнение пропущенных сэмплов тишиной : Да
Удаление блоков с тишиной в начале и конце : Нет
При вычислениях CRC использовались нулевые сэмплы : Да
Интерфейс : Встроенный Win32-интерфейс для Win NT/2000

Выходной формат : Внутренние WAV-операции
Формат сэмплов : 44.100 Гц; 16 бит; стерео


TOC извлечённого CD

Трек | Старт | Длительность | Начальный сектор | Конечный сектор
---------------------------------------------------------------------
1 | 0:00.00 | 5:45.42 | 0 | 25916
2 | 5:45.42 | 5:19.13 | 25917 | 49854
3 | 11:04.55 | 4:42.71 | 49855 | 71075
4 | 15:47.51 | 5:22.12 | 71076 | 95237
5 | 21:09.63 | 4:31.65 | 95238 | 115627
6 | 25:41.53 | 4:32.21 | 115628 | 136048
7 | 30:13.74 | 4:28.43 | 136049 | 156191
8 | 34:42.42 | 5:32.16 | 156192 | 181107
9 | 40:14.58 | 6:06.38 | 181108 | 208595
10 | 46:21.21 | 4:17.32 | 208596 | 227902
11 | 50:38.53 | 5:18.25 | 227903 | 251777
12 | 55:57.03 | 5:33.40 | 251778 | 276792


Характеристики диапазона извлечения и сообщения об ошибках

Выбранный диапазон

Имя файла C:\Users\everhard\Desktop\WC\Witch Cross - All That's Fit For Fighting (CD4).wav

Пиковый уровень 100.0 %
Качество диапазона 99.9 %
CRC теста 767F6F5A
CRC копии 767F6F5A
Копирование... OK

Ошибок не произошло


AccurateRip: сводка

Трек 1 точность не определена (достоверность 1) [C94A2927], AccurateRip вернул [7530506F]
Трек 2 точность не определена (достоверность 1) [96A43727], AccurateRip вернул [174FFEE6]
Трек 3 точность не определена (достоверность 1) [2B0DE25E], AccurateRip вернул [1EC9B382]
Трек 4 точность не определена (достоверность 1) [F195B64A], AccurateRip вернул [5C327ECF]
Трек 5 точность не определена (достоверность 1) [B8BB2401], AccurateRip вернул [23773388]
Трек 6 точность не определена (достоверность 1) [FCE1D8C4], AccurateRip вернул [C43DE476]
Трек 7 точность не определена (достоверность 1) [C159B0B0], AccurateRip вернул [A3B0D831]
Трек 8 точность не определена (достоверность 1) [A86E1AA5], AccurateRip вернул [9E7D00FB]
Трек 9 точность не определена (достоверность 1) [0D22FD31], AccurateRip вернул [95C1BEE0]
Трек 10 точность не определена (достоверность 1) [5DAF7FD3], AccurateRip вернул [49325619]
Трек 11 точность не определена (достоверность 1) [8EEFB687], AccurateRip вернул [A7536FA8]
Трек 12 точность не определена (достоверность 1) [F54CD843], AccurateRip вернул [6FB48100]

Ни один трек не прошёл проверки на точность
В вашей базе может быть иной вариант штамповки диска

Конец отчёта


Download:
CD1
CD2 - DVD c с концертом, если кому нужен - пишите, рипну.
CD3 & CD4
Сканы полиграфии и буклета с интервью присутствуют.

_________________
1990 AUROPHON BRAINSTORM (Germany) - lossless
1994 MAUSOLEUM CLASSIX (Belgium-Germany) - lossless
1998 VA - GRIM HARVEST - Complete Metal Massacre Volumes I-XII


Top
 Profile  
 
 
PostPosted: 04 Feb 2015 
5-speed satisfactor
User avatar
Joined: 16 Feb 2009
Posts: 3622
Lоcаtion: New York, USA
Age: 40
Name: Leonid
:thanx:

_________________
Death rules! Metal to all who oppose!


Top
 Profile  
 
 
PostPosted: 04 Feb 2015 
Персональный статус
User avatar
Joined: 28 Mar 2013
Posts: 420
Lоcаtion: Russia (Bryansk)
Age: 25
Name: Michael
Классно! Огромное спасибо!!! Если есть возможность, то хочеться и дивидюшку. :oops:
Ник, а там ещё бонус 5 клипов, как там по качеству?


Top
 Profile E-mail  
 
 
PostPosted: 04 Feb 2015 
\m/ 80 см сала \m/
User avatar
Joined: 12 Mar 2012
Posts: 2589
Age: 25
Name: Nick
Концерт - запись с "воздуха" (AUD) на камеру. Клипы - проф. съемка, звук с студийной записи альбома. Качество как для бутлега тех лет довольно неплохое. DVD весит почти 7 гб :scratch:
Image

Image

_________________
1990 AUROPHON BRAINSTORM (Germany) - lossless
1994 MAUSOLEUM CLASSIX (Belgium-Germany) - lossless
1998 VA - GRIM HARVEST - Complete Metal Massacre Volumes I-XII


Top
 Profile  
 
 
PostPosted: 04 Feb 2015 
Персональный статус
User avatar
Joined: 28 Mar 2013
Posts: 420
Lоcаtion: Russia (Bryansk)
Age: 25
Name: Michael
Будем ждать. :true: :true: :true:


Top
 Profile E-mail  
 
 
PostPosted: 04 Feb 2015 
Персональный статус
User avatar
Joined: 10 Jun 2009
Posts: 345
Name: jose gomes
Can be posted 320 Kbps links also ?

Thank You.


Top
 Profile E-mail  
 
 
PostPosted: 04 Feb 2015 
Хиппей (support team)
User avatar
Joined: 30 Jul 2007
Posts: 108231
Lоcаtion: Киев (Kyiv, UA)
Age: 45
Name: Andrey
:thanx:

mirror:

CD 1 - Narod l M-Cloud
CD 2+3 - Narod l M-Cloud


Everhard wrote:
DVD весит почти 7 гб

Ну норм. Как раз на две болваночки ляжет :dance:

_________________


Top
 Profile E-mail  
 
 
PostPosted: 04 Feb 2015 
Хиппей (support team)
User avatar
Joined: 30 Jul 2007
Posts: 108231
Lоcаtion: Киев (Kyiv, UA)
Age: 45
Name: Andrey
Can be posted 320 Kbps links also ?

Thank You.

http://rutracker.org/forum/search.php?nm=Witch%20Cross :vic:

http://dark-world.ru/albums/Witch-Cross ... lation.php

_________________


Top
 Profile E-mail  
 
 
PostPosted: 04 Feb 2015 
Хиппей (support team)
User avatar
Joined: 30 Jul 2007
Posts: 108231
Lоcаtion: Киев (Kyiv, UA)
Age: 45
Name: Andrey
Quote:
vit111 31.07.2014

Fit for Fight , когда услышал , произвел неизгладимое впечатление , не смотря на ужасное качество и перевернутую фазу сигнала в одном из каналов на сидишке . Когда появился в сети нормальный винил-рип , снес компакт не задумываясь . Очень интересно , как получилась вторая попытка . Ну а шикарная подборка бонусов - это вообще нечто , только бы оцифровали нормально . Большое спасибо Женя за такое издание !

http://moole.ru/blog/my-melodik-metal-c ... g-box.html

Не проверяли, здесь тоже самое?

зы. Я не про то, что Женя издал это... издание :crazy:

_________________


Top
 Profile E-mail  
 
 
PostPosted: 04 Feb 2015 
\m/ 80 см сала \m/
User avatar
Joined: 12 Mar 2012
Posts: 2589
Age: 25
Name: Nick
truesteel, Witch Cross - All That's Fit For Fighting (2013) mp3@320 cbr

Scatterbrain wrote:
Не проверяли, здесь тоже самое?

Тоже самое, разве что штамповка у меня другая.
Сам по себе бокс-сет интересен разве что демками и книжецой с интервью. Оригинальный альбом оцифрован отвратительно - к рипу Виталия им как до луны пешком.

_________________
1990 AUROPHON BRAINSTORM (Germany) - lossless
1994 MAUSOLEUM CLASSIX (Belgium-Germany) - lossless
1998 VA - GRIM HARVEST - Complete Metal Massacre Volumes I-XII


Top
 Profile  
 
 
PostPosted: 04 Feb 2015 
Хиппей (support team)
User avatar
Joined: 30 Jul 2007
Posts: 108231
Lоcаtion: Киев (Kyiv, UA)
Age: 45
Name: Andrey
Everhard wrote:
Оригинальный альбом оцифрован отвратительно

:thanx:

_________________


Top
 Profile E-mail  
 
 
PostPosted: 04 Feb 2015 
Прокъмитолист
User avatar
Joined: 12 Aug 2007
Posts: 6504
Lоcаtion: Санктъ-Петербуркъ
Age: 51
Name: Олекъ
спасибо, Ник! утаскиваю :thanx:

_________________
прокъметол - это музыко, от которово есть прок (ы)


Top
 Profile  
 
 
PostPosted: 04 Feb 2015 
Персональный статус
User avatar
Joined: 10 Jun 2009
Posts: 345
Name: jose gomes
truesteel, Witch Cross - All That's Fit For Fighting (2013) mp3@320 cbr

Scatterbrain wrote:
Не проверяли, здесь тоже самое?

Тоже самое, разве что штамповка у меня другая.
Сам по себе бокс-сет интересен разве что демками и книжецой с интервью. Оригинальный альбом оцифрован отвратительно - к рипу Виталия им как до луны пешком.


Thank You a lot for the link !
:thanx:
:meloman:


Top
 Profile E-mail  
 
 
PostPosted: 04 Feb 2015 
\m/ 80 см сала \m/
User avatar
Joined: 12 Mar 2012
Posts: 2589
Age: 25
Name: Nick
DVD Live In Eindhoven. Разбил на части, т.к. Яндекс имеет свойство выдавать ошибки в конце заливки :scratch:
part 1
part 2
part 3
part 4
part 5
part 6
part 7

_________________
1990 AUROPHON BRAINSTORM (Germany) - lossless
1994 MAUSOLEUM CLASSIX (Belgium-Germany) - lossless
1998 VA - GRIM HARVEST - Complete Metal Massacre Volumes I-XII


Top
 Profile  
 
 
PostPosted: 04 Feb 2015 
Труъ
User avatar
Joined: 27 Feb 2009
Posts: 186
Lоcаtion: Питер
Age: 51
Name: Олег
Scatterbrain wrote:
Не проверяли, здесь тоже самое?

Тоже самое ... Просто скопировали со старого цд и не парились , ну и конечно никто не искал винил для синглов и не цифровал , надергали мп3 с сети , вот и все дела . В очередной раз завернули порцию г-на в красивую обертку , единственная ценность -двд .


Top
 Profile  
 
 
PostPosted: 04 Feb 2015 
Хиппей (support team)
User avatar
Joined: 30 Jul 2007
Posts: 108231
Lоcаtion: Киев (Kyiv, UA)
Age: 45
Name: Andrey
vit111 wrote:
Просто скопировали со старого цд и не парились , ну и конечно никто не искал винил для синглов и не цифровал , надергали мп3 с сети , вот и все дела . В очередной раз завернули порцию г-на в красивую обертку , единственная ценность -двд .

Олег, и тебе спасибо за инфу :thanx:

Не удивлюсь, если с DVD тоже не всё так печально. А то, получается, Ник только ради бумаго-пластика купил (или одолжил для рипа) издание :cry:


зы. Вот неправильно у нас люди развиваются. Лучше бы подумали, как бы так сделать так, чтобы после прийома пищи внутрь эта самая пища превращалась в небольшой такой пакетик, разделённый на две части. Чтобы поел вкусняшки, а через несколько часов полез в район дупы, вынул два забитых отходами пакетика и выбросил в куда надо. Эх... несовершенен человек. Неужто точно бородатый дядька с картинок создал нас по подобию своему и ходит на горшок нам же на голову? Оттого и погода разная такая...
ыз. Пардон за очередное невольное отвлечение от темы. После вкусного обеда потянуло на "а поговорить" :pardon:

_________________


Top
 Profile E-mail  
 
 
PostPosted: 04 Feb 2015 
Труъ
User avatar
Joined: 27 Feb 2009
Posts: 186
Lоcаtion: Питер
Age: 51
Name: Олег
Спасибо за двд :thanx: :thanx:


Top
 Profile  
 
 
PostPosted: 04 Feb 2015 
Персональный статус
User avatar
Joined: 28 Mar 2013
Posts: 420
Lоcаtion: Russia (Bryansk)
Age: 25
Name: Michael
Спасибо :lob:


Top
 Profile E-mail  
 
 
PostPosted: 05 Feb 2015 
Хиппей (support team)
User avatar
Joined: 30 Jul 2007
Posts: 108231
Lоcаtion: Киев (Kyiv, UA)
Age: 45
Name: Andrey
Everhard wrote:
DVD Live In Eindhoven. Разбил на части, т.к. Яндекс имеет свойство выдавать ошибки в конце заливки

:thanx:

_________________


Top
 Profile E-mail  
 
 
PostPosted: 05 Feb 2015 
А может смените мне статус?..
User avatar
Joined: 24 Dec 2008
Posts: 621
Age: 44
Name: Дмитрий
Спасибо! :meloman:


Top
 Profile  
 
Display posts from previous:  Sort by  
Post new topic Reply to topic  [ 22 posts ]  Go to page 1, 2  Next

All times are UTC + 3 hours


Who is online

Users browsing this forum: No registered users and 2 guests


You cannot post new topics in this forum
You cannot reply to topics in this forum
You cannot edit your posts in this forum
You cannot delete your posts in this forum
You cannot post attachments in this forum

Search for:
Яндекс.Метрика
Powered by phpBB © 2000, 2002, 2005, 2007 phpBB Group