\m/ 80's metal \m/

Информационно-аналитический форум "80 см пыли" (In Search We Trust) "У нас никто никуда не спешит"
Me For You - http://me-4u.com
It is currently 21 Nov 2018

All times are UTC + 3 hours

Spoiler
Chat - temporary registration for foreign users (please leave your application here)







Post new topic Reply to topic  [ 8 posts ] 
Author Message
 
PostPosted: 15 Apr 2014 
Генеральный thrasher
User avatar
Joined: 03 Oct 2008
Posts: 3510
Lоcаtion: Ханты-Мансийский АО
Age: 43
Name: Сергей
Image

Year:1995
Style:Thrash Metal
Country:Portugal
Audio:Flac+Cue+Log+Scans
Size:306Mb
Source:my CD
Label:Milestone Music

Line-Up:
Nando - vocals
Pedro Martins - drums
Rodolfo Cardoso - guitars
Victor - bass

Tracklist:
01. Wasted Time 03:47
02. Confusion 04:07
03. Lost 03:58
04. Better Days 05:12
05. Man Hunting 03:35
06. Surrounded City 03:58
07. The Ladder 04:16
08. Secrecy 03:43
09. People 03:59

"Cue"
REM GENRE "Thrash Metal"
REM DATE 1995
REM DISCID 7108AA09
REM COMMENT "ExactAudioCopy v0.99pb5"
PERFORMER "W.C. Noise"
TITLE "Reality Asylum"
FILE "W.C. Noise - Reality Asylum.flac" WAVE
TRACK 01 AUDIO
TITLE "Wasted Time"
PERFORMER "W.C. Noise"
INDEX 01 00:00:00
TRACK 02 AUDIO
TITLE "Confusion"
PERFORMER "W.C. Noise"
INDEX 00 03:47:22
INDEX 01 03:49:60
TRACK 03 AUDIO
TITLE "Lost"
PERFORMER "W.C. Noise"
INDEX 00 07:57:27
INDEX 01 07:59:72
TRACK 04 AUDIO
TITLE "Better Days"
PERFORMER "W.C. Noise"
INDEX 00 11:58:30
INDEX 01 12:00:45
TRACK 05 AUDIO
TITLE "Man Hunting"
PERFORMER "W.C. Noise"
INDEX 00 17:13:30
INDEX 01 17:15:52
TRACK 06 AUDIO
TITLE "Surrounded City"
PERFORMER "W.C. Noise"
INDEX 00 20:50:70
INDEX 01 20:53:67
TRACK 07 AUDIO
TITLE "The Ladder"
PERFORMER "W.C. Noise"
INDEX 00 24:51:72
INDEX 01 24:54:20
TRACK 08 AUDIO
TITLE "Secrecy"
PERFORMER "W.C. Noise"
INDEX 00 29:11:10
INDEX 01 29:13:35
TRACK 09 AUDIO
TITLE "People"
PERFORMER "W.C. Noise"
INDEX 00 32:57:10
INDEX 01 32:59:12

"Log"
Exact Audio Copy V0.99 prebeta 5 from 4. May 2009

Отчёт EAC об извлечении, выполненном 5. апреля 2014, 16:58

W.C. Noise / Reality Asylum

Дисковод: MATSHITADVD-RAM UJ8A0AS Adapter: 0 ID: 1

Режим чтения : Достоверность
Использование точного потока : Да
Отключение кэша аудио : Да
Использование указателей C2 : Нет

Коррекция смещения при чтении : 102
Способность читать области Lead-in и Lead-out : Нет
Заполнение пропущенных сэмплов тишиной : Да
Удаление блоков с тишиной в начале и конце : Нет
При вычислениях CRC использовались нулевые сэмплы : Да
Интерфейс : Встроенный Win32-интерфейс для Win NT/2000

Выходной формат : Пользовательский кодировщик
Выбранный битрейт : 1024 kBit/s
Качество : Высокий
Добавление ID3-тэга : Нет
Утилита сжатия : C:\Program Files\Exact Audio Copy\FLAC\FLAC.EXE
Дополнительные параметры : -6 -V -T "ARTIST=%a" -T "TITLE=%t" -T "ALBUM=%g" -T "DATE=%y" -T "TRACKNUMBER=%n" -T "GENRE=%m" -T "COMMENT=%e" %s -o %d


TOC извлечённого CD

Трек | Старт | Длительность | Начальный сектор | Конечный сектор
---------------------------------------------------------------------
1 | 0:00.00 | 3:49.60 | 0 | 17234
2 | 3:49.60 | 4:10.12 | 17235 | 35996
3 | 7:59.72 | 4:00.48 | 35997 | 54044
4 | 12:00.45 | 5:15.07 | 54045 | 77676
5 | 17:15.52 | 3:38.15 | 77677 | 94041
6 | 20:53.67 | 4:00.28 | 94042 | 112069
7 | 24:54.20 | 4:19.15 | 112070 | 131509
8 | 29:13.35 | 3:45.52 | 131510 | 148436
9 | 32:59.12 | 3:59.25 | 148437 | 166386


Характеристики диапазона извлечения и сообщения об ошибках

Выбранный диапазон

Имя файла C:\Users\эксперт\Music\W.C. Noise - Reality Asylum.wav

Пиковый уровень 100.0 %
Качество диапазона 99.9 %
CRC копии BDE09486
Копирование... OK

Ошибок не произошло


AccurateRip: сводка

Трек 1 нет в базе данных
Трек 2 нет в базе данных
Трек 3 нет в базе данных
Трек 4 нет в базе данных
Трек 5 нет в базе данных
Трек 6 нет в базе данных
Трек 7 нет в базе данных
Трек 8 нет в базе данных
Трек 9 нет в базе данных

Ни одного трека нет в базе AccurateRip

Конец отчёта


Reality Asylum

Диск вышел в Португалии в 1994 году,а годом позже переиздан германской фирмой Milestone Music...


Top
 Profile  
 
 
PostPosted: 15 Apr 2014 
Прокъмитолист
User avatar
Joined: 12 Aug 2007
Posts: 6504
Lоcаtion: Санктъ-Петербуркъ
Age: 51
Name: Олекъ
Серёга, спасибо! :thanx:

_________________
прокъметол - это музыко, от которово есть прок (ы)


Top
 Profile  
 
 
PostPosted: 15 Apr 2014 
Дежурный по КУПу
User avatar
Joined: 17 Aug 2007
Posts: 5869
Age: 50
Name: Ге
:thanx:

_________________
http://jp-mania.ru/
http://jp-tourdates.ucoz.ru/


Top
 Profile  
 
 
PostPosted: 15 Apr 2014 
А может смените мне статус?..
User avatar
Joined: 28 Jul 2008
Posts: 907
Lоcаtion: Украина---Днепропетровск
Age: 44
Name: Александр
:thanx:

_________________
Музыка в которой я растворяюсь многих угнетает......


Top
 Profile  
 
 
PostPosted: 15 Apr 2014 
Хиппей (support team)
User avatar
Joined: 30 Jul 2007
Posts: 108255
Lоcаtion: Киев (Kyiv, UA)
Age: 45
Name: Andrey
О, кажись как-то искали мы этот "Шум клозета" :thanx:

_________________


Top
 Profile E-mail  
 
 
PostPosted: 15 Apr 2014 
Генеральный thrasher
User avatar
Joined: 03 Oct 2008
Posts: 3510
Lоcаtion: Ханты-Мансийский АО
Age: 43
Name: Сергей
Ну кажись нашли... :benya:


Top
 Profile  
 
 
PostPosted: 15 Apr 2014 
Персональный статус
Joined: 19 Jul 2010
Posts: 282
Lоcаtion: Москва
Name: Вадим
Весёлый треш. Забавный альбомчик. Старый Турникет местами напомнил, особенно вокалом.
Понравился. Спасибо.


Top
 Profile E-mail  
 
 
PostPosted: 16 Apr 2014 
Хиппей (support team)
User avatar
Joined: 30 Jul 2007
Posts: 108255
Lоcаtion: Киев (Kyiv, UA)
Age: 45
Name: Andrey
К сожалению, альбом обычная пустышка :( Лишь последний кроссоверный трэк понравился.
Или я его начал слушать слишком критично и серьезно? :vic:

2/10

mirror: Narod l M-Cloud

_________________


Top
 Profile E-mail  
 
Display posts from previous:  Sort by  
Post new topic Reply to topic  [ 8 posts ] 

All times are UTC + 3 hours


Who is online

Users browsing this forum: No registered users and 1 guest


You cannot post new topics in this forum
You cannot reply to topics in this forum
You cannot edit your posts in this forum
You cannot delete your posts in this forum
You cannot post attachments in this forum

Search for:
Яндекс.Метрика
Powered by phpBB © 2000, 2002, 2005, 2007 phpBB Group