\m/ 80's metal \m/

Информационно-аналитический форум "80 см пыли" (In Search We Trust) "У нас никто никуда не спешит"
Me For You - http://me-4u.com
It is currently 21 Nov 2018

All times are UTC + 3 hours

Spoiler
Chat - temporary registration for foreign users (please leave your application here)







Post new topic Reply to topic  [ 1 post ] 
Author Message
 
PostPosted: 09 Aug 2013 
Хиппей (support team)
User avatar
Joined: 30 Jul 2007
Posts: 108243
Lоcаtion: Киев (Kyiv, UA)
Age: 45
Name: Andrey
Warhead - 2007 - Captured [flac]

Image

Line-up:
Michael A. Müller - vocals
Stefan Rolf - guitars
Benjamin zur Heide - bass, vocals (backing)
Peter Breitenbach - drums

    1. Thanx Killing - 05:32
    2. Lies - 04:18
    3. Captured - 04:30
    4. Battle Royale - 03:38
    5. Deatheater - 02:56
    6. Alive - 05:52
    7. Zombie Ride - 02:17
    8. Phantoms - 05:40
    9. Purple People - 03:32
    10. City of God - 06:23

    TPT: 44:38


Genre: Speed Power Metal/Thrash
Location: Germany
Format: flac + cue + log + covers
Size: 399 Mb

Source: стянуто с интернета, смотрим лог, если что :thanx:

Дык, какой модный, но милый альбом :true: Группа старенькая, но играет очень хорошо.
Откель у меня лосик взялся, не помню :vic:

ps. Ага, по логу видно, что автор рипа Denak (Денис), если не ошибаюсь.

7/10

F-Bit l Narod

log
Exact Audio Copy V1.0 beta 1 from 15. November 2010

EAC extraction logfile from 10. June 2011, 20:02

WARHEAD / Captured

Used drive : Optiarc DVD RW AD-7203A Adapter: 0 ID: 1

Read mode : Secure
Utilize accurate stream : Yes
Defeat audio cache : Yes
Make use of C2 pointers : No

Read offset correction : 48
Overread into Lead-In and Lead-Out : No
Fill up missing offset samples with silence : Yes
Delete leading and trailing silent blocks : No
Null samples used in CRC calculations : Yes
Used interface : Native Win32 interface for Win NT & 2000

Used output format : User Defined Encoder
Selected bitrate : 1024 kBit/s
Quality : High
Add ID3 tag : Yes
Command line compressor : C:\Program Files (x86)\Exact Audio Copy 1.0b\FLAC\FLAC.EXE
Additional command line options : -6 -V -T "ARTIST=%a" -T "TITLE=%t" -T "ALBUM=%g" -T "DATE=%y" -T "TRACKNUMBER=%n" -T "GENRE=%m" -T "COMMENT=%e" %j--picture="%i"%j %s -o %d


TOC of the extracted CD

Track | Start | Length | Start sector | End sector
---------------------------------------------------------
1 | 0:00.46 | 5:31.28 | 46 | 24898
2 | 5:31.74 | 4:18.32 | 24899 | 44280
3 | 9:50.31 | 4:29.53 | 44281 | 64508
4 | 14:20.09 | 3:37.56 | 64509 | 80839
5 | 17:57.65 | 2:56.24 | 80840 | 94063
6 | 20:54.14 | 5:51.37 | 94064 | 120425
7 | 26:45.51 | 2:17.12 | 120426 | 130712
8 | 29:02.63 | 5:40.01 | 130713 | 156213
9 | 34:42.64 | 3:32.08 | 156214 | 172121
10 | 38:14.72 | 6:23.26 | 172122 | 200872


Range status and errors

Selected range

Filename H:\DEN@K\WARHEAD - Captured 2007\WARHEAD - Captured.wav

Peak level 100.0 %
Extraction speed 0.5 X
Range quality 100.0 %
Test CRC 9BB1E777
Copy CRC 9BB1E777
Copy OK

No errors occurred


AccurateRip summary

Track 1 not present in database
Track 2 not present in database
Track 3 not present in database
Track 4 not present in database
Track 5 not present in database
Track 6 not present in database
Track 7 not present in database
Track 8 not present in database
Track 9 not present in database
Track 10 not present in database

None of the tracks are present in the AccurateRip database

End of status report

==== Log checksum BA3B7A6862B6DC083956ED257540A2D002D9BE1E26CED821D4F5EB018AB8C3CB ====

cue
REM DISCID 890A760A
REM COMMENT "ExactAudioCopy v1.0b1"
PERFORMER "WARHEAD"
TITLE "Captured"
FILE "WARHEAD - Captured.flac" WAVE
TRACK 01 AUDIO
TITLE "Thanx Killing"
PERFORMER "WARHEAD"
ISRC DED330700014
INDEX 00 00:00:00
INDEX 01 00:00:46
TRACK 02 AUDIO
TITLE "Lies!"
PERFORMER "WARHEAD"
ISRC DED330700015
INDEX 01 05:31:74
TRACK 03 AUDIO
TITLE "Captured"
PERFORMER "WARHEAD"
ISRC DED330700016
INDEX 01 09:50:31
TRACK 04 AUDIO
TITLE "Battle Royale"
PERFORMER "WARHEAD"
ISRC DED330700017
INDEX 01 14:20:09
TRACK 05 AUDIO
TITLE "Deatheater"
PERFORMER "WARHEAD"
ISRC DED330700018
INDEX 01 17:57:65
TRACK 06 AUDIO
TITLE "Alive"
PERFORMER "WARHEAD"
ISRC DED330700019
INDEX 01 20:54:14
TRACK 07 AUDIO
TITLE "Zombie Ride"
PERFORMER "WARHEAD"
ISRC DED330700020
INDEX 01 26:45:51
TRACK 08 AUDIO
TITLE "Phantoms"
PERFORMER "WARHEAD"
ISRC DED330700021
INDEX 01 29:02:63
TRACK 09 AUDIO
TITLE "Purple People"
PERFORMER "WARHEAD"
ISRC DED330700022
INDEX 01 34:42:64
TRACK 10 AUDIO
TITLE "City of God"
PERFORMER "WARHEAD"
ISRC DED330700023
INDEX 01 38:14:72

covers
Image
Image
Image
Image
Image
Image
Image
Image
Image
Image
Image

_________________


Top
 Profile E-mail  
 
Display posts from previous:  Sort by  
Post new topic Reply to topic  [ 1 post ] 

All times are UTC + 3 hours


Who is online

Users browsing this forum: No registered users and 3 guests


You cannot post new topics in this forum
You cannot reply to topics in this forum
You cannot edit your posts in this forum
You cannot delete your posts in this forum
You cannot post attachments in this forum

Search for:
Яндекс.Метрика
Powered by phpBB © 2000, 2002, 2005, 2007 phpBB Group