\m/ 80's metal \m/

Информационно-аналитический форум "80 см пыли" (In Search We Trust) "У нас никто никуда не спешит"
Me For You - http://me-4u.com
It is currently 20 Nov 2018

All times are UTC + 3 hours

Spoiler
Chat - temporary registration for foreign users (please leave your application here)







Post new topic Reply to topic  [ 9 posts ] 
Author Message
 
PostPosted: 03 May 2013 
Работнечег
User avatar
Joined: 28 Aug 2007
Posts: 5555
Lоcаtion: г. Москва
Age: 29
Name: Дима
Image

Year: 1999
Label: Self-Released
Genre: Heavy Metal
Coutry: Germany
Format: Flac + Log + Cue + Covers
Size: 150 Mb

Line-Up:
Gilbert Klesse - Bass
Jan Stute - Drums
Ingo Platzek - Vocals, Guitars


Tracklist:
1. Mindlock (Intro) 00:31
2. The Vicious Circle 04:28
3. Lord of Insanity 03:56
4. Engraved in My Skin 04:59
5. Tomorrow's Grey 05:29

LOG
Exact Audio Copy V0.99 prebeta 5 from 4. May 2009

EAC extraction logfile from 27. April 2013, 14:30

Witness Of Reality / The Silent Majority

Used drive : PIONEER DVD-RW DVR-116D Adapter: 0 ID: 0

Read mode : Secure
Utilize accurate stream : Yes
Defeat audio cache : Yes
Make use of C2 pointers : No

Read offset correction : 96
Overread into Lead-In and Lead-Out : No
Fill up missing offset samples with silence : Yes
Delete leading and trailing silent blocks : No
Null samples used in CRC calculations : Yes
Used interface : Native Win32 interface for Win NT & 2000

Used output format : User Defined Encoder
Selected bitrate : 32 kBit/s
Quality : High
Add ID3 tag : No
Command line compressor : C:\Program Files\Exact Audio Copy\Flac\flac.exe
Additional command line options : -6 -V %s


TOC of the extracted CD

Track | Start | Length | Start sector | End sector
---------------------------------------------------------
1 | 0:00.00 | 0:31.19 | 0 | 2343
2 | 0:31.19 | 4:28.03 | 2344 | 22446
3 | 4:59.22 | 3:55.42 | 22447 | 40113
4 | 8:54.64 | 4:59.26 | 40114 | 62564
5 | 13:54.15 | 5:28.38 | 62565 | 87202


Range status and errors

Selected range

Filename D:\Музыка\Lossless\Witness Of Reality - The Silent Majority EP (1999)\Witness Of Reality - The Silent Majority.wav

Peak level 100.0 %
Range quality 100.0 %
Copy CRC 075AD68F
Copy OK

No errors occurred


AccurateRip summary

Track 1 not present in database
Track 2 not present in database
Track 3 not present in database
Track 4 not present in database
Track 5 not present in database

None of the tracks are present in the AccurateRip database

End of status report

CUE
REM GENRE "Heavy/Thrash Metal"
REM DATE 1999
REM DISCID 2B048A05
REM COMMENT "ExactAudioCopy v0.99pb5"
PERFORMER "Witness Of Reality"
TITLE "The Silent Majority"
FILE "Witness Of Reality - The Silent Majority.flac" WAVE
TRACK 01 AUDIO
TITLE "Mindlock (Intro)"
PERFORMER "Witness Of Reality"
INDEX 01 00:00:00
TRACK 02 AUDIO
TITLE "The Vicious Circle"
PERFORMER "Witness Of Reality"
INDEX 01 00:31:19
TRACK 03 AUDIO
TITLE "Lord Of Insanity"
PERFORMER "Witness Of Reality"
INDEX 00 04:57:22
INDEX 01 04:59:22
TRACK 04 AUDIO
TITLE "Engraved In My Skin"
PERFORMER "Witness Of Reality"
INDEX 00 08:52:64
INDEX 01 08:54:64
TRACK 05 AUDIO
TITLE "Tomorrow's Grey"
PERFORMER "Witness Of Reality"
INDEX 00 13:52:15
INDEX 01 13:54:15

Spectrum
Image


Rusfolder.Ru

Абсолютно раритетный миник, но самое главное, что мне понравилось :benya: Хрипловатый вокал и среднетемповые композиции, довольно интересные мелодии. На твердую четверкую. Думаю понравится любителям Rebellion.


Top
 Profile E-mail  
 
 
PostPosted: 03 May 2013 
Alive Again
User avatar
Joined: 17 Dec 2008
Posts: 4744
Lоcаtion: Курск Воронеж Оскол
Age: 44
Name: Дмитрий
:thanx:


Top
 Profile E-mail  
 
 
PostPosted: 04 May 2013 
ТрэшЭрос
User avatar
Joined: 18 Jul 2011
Posts: 2300
Lоcаtion: Гулькевичи
Age: 43
Name: Александр
Дима, :thanx:
На МА указан стиль thrash :true:

_________________
Thrash no trash!!!


Top
 Profile E-mail  
 
 
PostPosted: 04 May 2013 
Работнечег
User avatar
Joined: 28 Aug 2007
Posts: 5555
Lоcаtion: г. Москва
Age: 29
Name: Дима
Дима, :thanx:
На МА указан стиль thrash :true:

М-А как это часто бывает заблуждаются))


Top
 Profile E-mail  
 
 
PostPosted: 04 May 2013 
Хиппей (support team)
User avatar
Joined: 30 Jul 2007
Posts: 108218
Lоcаtion: Киев (Kyiv, UA)
Age: 45
Name: Andrey
:thanx:

mirror: F-Bit l Narod

Обложка хороша :true:

_________________


Top
 Profile E-mail  
 
 
PostPosted: 05 May 2013 
Хиппей (support team)
User avatar
Joined: 30 Jul 2007
Posts: 108218
Lоcаtion: Киев (Kyiv, UA)
Age: 45
Name: Andrey
Rebellion не слушал, и явно жалеть не о чём =))
С этой же группы, точнее, с миника, поржал :crazy: Спасибо, однозначно не моё :pardon:

Хотя... продолжаю слушать, а то возможно с первого раза не проникся :vic:

ps. После интро небольшой щелчок огорчил... :fingal:

_________________


Top
 Profile E-mail  
 
 
PostPosted: 05 May 2013 
Хиппей (support team)
User avatar
Joined: 30 Jul 2007
Posts: 108218
Lоcаtion: Киев (Kyiv, UA)
Age: 45
Name: Andrey
Не, никуда не годится. Вокалист вообще ж петь не умеет. Не смотря в лайн-ап сразу могу сказать, что за вокальной стойкой басист =)
Мелодий мизер самый, скудны очень, коротковаты и рваные. Не моё, в общем. Да и скоростей ноль :pardon:

2/10

_________________


Top
 Profile E-mail  
 
 
PostPosted: 05 May 2013 
Хиппей (support team)
User avatar
Joined: 30 Jul 2007
Posts: 108218
Lоcаtion: Киев (Kyiv, UA)
Age: 45
Name: Andrey
church wrote:
Ingo Platzek - Vocals, Guitars

Ну, ошибся :crazy:

_________________


Top
 Profile E-mail  
 
 
PostPosted: 11 May 2013 
Я набрал 1000 сообщений!
User avatar
Joined: 25 Dec 2008
Posts: 1545
Age: 43
Name: Павел
Димка, спасибо за ознакомление! Вполне хороший, годный power.
Scatterbrain wrote:
никуда не годится

Кто-то зажрался. :nunu:


Top
 Profile  
 
Display posts from previous:  Sort by  
Post new topic Reply to topic  [ 9 posts ] 

All times are UTC + 3 hours


Who is online

Users browsing this forum: No registered users and 6 guests


You cannot post new topics in this forum
You cannot reply to topics in this forum
You cannot edit your posts in this forum
You cannot delete your posts in this forum
You cannot post attachments in this forum

Search for:
Яндекс.Метрика
Powered by phpBB © 2000, 2002, 2005, 2007 phpBB Group