\m/ 80's metal \m/

Информационно-аналитический форум "80 см пыли" (In Search We Trust) "У нас никто никуда не спешит"
Me For You - http://me-4u.com
It is currently 19 Nov 2018

All times are UTC + 3 hours

Spoiler
Chat - temporary registration for foreign users (please leave your application here)







Post new topic Reply to topic  [ 9 posts ] 
Author Message
 
PostPosted: 18 Oct 2012 
А может смените мне статус?..
User avatar
Joined: 24 Sep 2012
Posts: 856
Lоcаtion: Нижегородская обл.
Age: 48
Name: Вячеслав
Image

Исполнитель: Wardance
Альбом: Heaven Is For Sale
Жанр: Heavy / Speed Metal
Страна: Germany (Landau, Rhineland-Palatinate)
Страна-производитель диска: Germany
Лейбл & № Catalog: No Remorse Records / NNR 1013
Формат Аудио: FLAC (Cue/Log/Image)+ All Scans
Продолжительность Звучания Альбома: 00:45:24
Размер Архива: 324 Mb (+ 3% recovery)
Источник (релизер): slayer19

Трэклист:

01. Heaven Is For Sale 02:38
02. Destroyer 03:47
03. Believe 03:52
04. Neverending Nightmare 03:43
05. I Don't Love You Anymore 06:19
06. Overture (instrumental) 00:55
07. Don't Play With Fire 03:37
08. Death Caress 05:24
09. Paris in Fear 03:52
10. House of the Rising Sun 02:52
11. Friday the 13th (CD-Bonus) 05:47
12. Blues (CD-Bonus) 02:39

"Лог создания рипа"
Exact Audio Copy V1.0 beta 3 from 29. August 2011

Отчёт EAC об извлечении, выполненном 18. октября 2012, 10:27

Wardance / Heaven Is for Sale

Дисковод: Optiarc DVD RW AD-7200A Adapter: 0 ID: 0

Режим чтения : Достоверность
Использование точного потока : Да
Отключение кэша аудио : Да
Использование указателей C2 : Нет

Коррекция смещения при чтении : 48
Способность читать области Lead-in и Lead-out : Нет
Заполнение пропущенных сэмплов тишиной : Да
Удаление блоков с тишиной в начале и конце : Нет
При вычислениях CRC использовались нулевые сэмплы : Да
Интерфейс : Встроенный Win32-интерфейс для Win NT/2000

Выходной формат : Пользовательский кодировщик
Выбранный битрейт : 128 kBit/s
Качество : Высокий
Добавление ID3-тега : Нет
Утилита сжатия : C:\Program Files\FLAC\FLAC frontend.exe


TOC извлечённого CD

Трек | Старт | Длительность | Начальный сектор | Конечный сектор
---------------------------------------------------------------------
1 | 0:00.32 | 2:37.60 | 32 | 11866
2 | 2:38.17 | 3:46.50 | 11867 | 28866
3 | 6:24.67 | 3:51.58 | 28867 | 46249
4 | 10:16.50 | 3:43.07 | 46250 | 62981
5 | 13:59.57 | 6:18.53 | 62982 | 91384
6 | 20:18.35 | 0:55.47 | 91385 | 95556
7 | 21:14.07 | 3:36.68 | 95557 | 111824
8 | 24:51.00 | 5:23.50 | 111825 | 136099
9 | 30:14.50 | 3:51.45 | 136100 | 153469
10 | 34:06.20 | 2:51.60 | 153470 | 166354
11 | 36:58.05 | 5:46.70 | 166355 | 192374
12 | 42:45.00 | 2:39.30 | 192375 | 204329


Характеристики диапазона извлечения и сообщения об ошибках

Выбранный диапазон

Имя файла D:\МОИ ФАЙЛЫ\LOSSLESS\slayer19\Wardance - Heaven Is for Sale.wav

Пиковый уровень 100.0 %
Скорость извлечения 3.4 X
Качество диапазона 99.9 %
CRC копии 2B0C0846
Копирование... OK

Ошибок не произошло

Конец отчёта

---- CUETools DB Plugin V2.1.3

[CTDB TOCID: HALAGzyrm82S0tpAVL9wxZZu1R8-] disk not present in database, Submit result: discs with pregaps not supported in this protocol version


==== Контрольная сумма отчёта D19AEEECD58E95596990343AB0FA312ACAD3FFA5A5889A8C7687F2B509DD6579 ====

"Фото"
Image


Скачать: Wardance - Heaven Is For Sale (1990) by slayer19.rar

_________________
Image


Top
 Profile E-mail  
 
 
PostPosted: 18 Oct 2012 
***


Last edited by Вася_металлист_2012 on 14 Dec 2012, edited 1 time in total.

Top
  
 
 
PostPosted: 18 Oct 2012 
А может смените мне статус?..
User avatar
Joined: 24 Sep 2012
Posts: 856
Lоcаtion: Нижегородская обл.
Age: 48
Name: Вячеслав
Не знаю что за группа, но наверное хорошая. Спасибо большое, Вячеслав! :true:

Вася пожалуйста, альбом охренительный, качай не пожалеешь!

_________________
Image


Top
 Profile E-mail  
 
 
PostPosted: 18 Oct 2012 
ТрэшЭрос
User avatar
Joined: 18 Jul 2011
Posts: 2300
Lоcаtion: Гулькевичи
Age: 43
Name: Александр
Line-Up:
Vocals: Sandra Schumacher
Guitars: Franz Romer
Guitars: Thomas Heyer
Bass: Markus Wawersich
Drums: Stefan Humbert

Нельзя не отметить Female Vocal :true:

Image

О группе
Группа была основана в 1984 году под названием Destroyer, но вскоре распалась, и последующие два года прошли в тишине. В июле 1986 года коллектив собрался вновь. В мае 1988 года немцы сменили вывеску на Wardance. Идея пришла в голову вокалистке Сандре Шумахер, вдохновленной песней Anthrax "Indians", где Джоуи Белладонна ревет "Waaaaaaaaaaardaaaaaaaaance".
Полгода спустя коллектив своими силами выпускает мини-альбом "Crucifixion" и в середине 1989 года подписывает контракт с молодым лейблом No Remorse Records. В феврале 1990 года на нем выходит полноформатный альбом - "Heaven Is For Sale". Альбом тиражируется на виниле и CD.В 1991 году лейбл обанкротился, и в конце лета того же года Wardance распались.
В апреле 1994 года Сандра и Маркус предприняли попытку реанимировать команду. Набрав новый состав, ребята отправились в студию и даже что-то записали, но когда дело дошло до дела, разразившиеся споры и конфликты вынудили участников проекта уничтожить запись.

_________________
Thrash no trash!!!


Top
 Profile E-mail  
 
 
PostPosted: 18 Oct 2012 
ТрэшЭрос
User avatar
Joined: 18 Jul 2011
Posts: 2300
Lоcаtion: Гулькевичи
Age: 43
Name: Александр
MetallicAS wrote:
Нельзя не отметить Female Vocal :true:

Трэклист:
...04. Neverending Nightmare 03:43

Слушать с 02:11 по 02:20 :dance:

_________________
Thrash no trash!!!


Top
 Profile E-mail  
 
 
PostPosted: 18 Oct 2012 
Что, пипирка торчком? :nunu:


Top
  
 
 
PostPosted: 18 Oct 2012 
А может смените мне статус?..
User avatar
Joined: 25 Mar 2009
Posts: 587
Lоcаtion: Нижний Новгород
Age: 48
Name: Владимир
м дя... данная команда для меня новая....
что ж заценим!


Top
 Profile  
 
 
PostPosted: 24 Oct 2012 
Персональный статус
User avatar
Joined: 22 Oct 2011
Posts: 352
Lоcаtion: Moscow
Age: 59
Name: Серёжа
:thanx:


Top
 Profile E-mail  
 
 
PostPosted: 12 Oct 2013 
\m/ 80 см сала \m/
User avatar
Joined: 12 Mar 2012
Posts: 2589
Age: 25
Name: Nick
slayer19, :thanx:

_________________
1990 AUROPHON BRAINSTORM (Germany) - lossless
1994 MAUSOLEUM CLASSIX (Belgium-Germany) - lossless
1998 VA - GRIM HARVEST - Complete Metal Massacre Volumes I-XII


Top
 Profile  
 
Display posts from previous:  Sort by  
Post new topic Reply to topic  [ 9 posts ] 

All times are UTC + 3 hours


Who is online

Users browsing this forum: No registered users and 2 guests


You cannot post new topics in this forum
You cannot reply to topics in this forum
You cannot edit your posts in this forum
You cannot delete your posts in this forum
You cannot post attachments in this forum

Search for:
Яндекс.Метрика
Powered by phpBB © 2000, 2002, 2005, 2007 phpBB Group