\m/ 80's metal \m/

Информационно-аналитический форум "80 см пыли" (In Search We Trust) "У нас никто никуда не спешит"
Me For You - http://me-4u.com
It is currently 19 Nov 2018

All times are UTC + 3 hours

Spoiler
Chat - temporary registration for foreign users (please leave your application here)







Post new topic Reply to topic  [ 2 posts ] 
Author Message
 
PostPosted: 04 Jun 2012 
Я набрал 1000 сообщений!
Joined: 24 Oct 2009
Posts: 2097
Lоcаtion: Оренбург
Age: 55
Name: Юра
Image

Год: 2007
Стиль: Hard Rock
Страна: Canada
Формат: FLAC (image+cue)+Log+Covers
Размер: 488МБ

Состав:

Don Wolf: Vocals
Cam Macleod: Lead Guitars
Martin Kronlund: Rhythm And Lead Guitars
Imre Daun: Drums
Rikard Quist: Bass And Keyboards

Треклист:

1. Victim of the Spotlight
2. The Wolf
3. America (Hello Again)
4. The Eyes of the World
5. One More Lie
6. Hard Cold Stone
7. Price of One
8. Dreams are Forever
9. Nightmares
10. Hold on (Gettin' Tighter)
11. Don't Turn Away
12. Out of Control

LOG
Exact Audio Copy V0.99 prebeta 5 from 4. May 2009

EAC extraction logfile from 25. November 2011, 7:28

White Wolf / Victim Of The Spotlight

Used drive : Optiarc DVD+-RW AD-7717H Adapter: 0 ID: 2

Read mode : Secure
Utilize accurate stream : Yes
Defeat audio cache : Yes
Make use of C2 pointers : No

Read offset correction : 48
Overread into Lead-In and Lead-Out : Yes
Fill up missing offset samples with silence : Yes
Delete leading and trailing silent blocks : No
Null samples used in CRC calculations : No
Used interface : Native Win32 interface for Win NT & 2000

Used output format : Internal WAV Routines
Sample format : 44.100 Hz; 16 Bit; Stereo


TOC of the extracted CD

Track | Start | Length | Start sector | End sector
---------------------------------------------------------
1 | 0:00.00 | 4:53.57 | 0 | 22031
2 | 4:53.57 | 3:25.43 | 22032 | 37449
3 | 8:19.25 | 6:01.52 | 37450 | 64576
4 | 14:21.02 | 4:18.30 | 64577 | 83956
5 | 18:39.32 | 3:23.55 | 83957 | 99236
6 | 22:03.12 | 4:01.50 | 99237 | 117361
7 | 26:04.62 | 3:42.70 | 117362 | 134081
8 | 29:47.57 | 4:29.73 | 134082 | 154329
9 | 34:17.55 | 3:36.27 | 154330 | 170556
10 | 37:54.07 | 4:35.13 | 170557 | 191194
11 | 42:29.20 | 4:29.60 | 191195 | 211429
12 | 46:59.05 | 4:41.22 | 211430 | 232526
13 | 51:40.27 | 5:17.05 | 232527 | 256306


Range status and errors

Selected range

Filename D:\MUSIC\White Wolf - Victim Of The Spotlight (2007)\White Wolf - Victim Of The Spotlight.wav

Suspicious position 0:46:20 - 0:46:21
Suspicious position 0:46:24 - 0:46:26
Suspicious position 0:46:28 - 0:46:37
Suspicious position 0:46:45
Suspicious position 0:46:52
Suspicious position 0:47:02 - 0:47:05
Suspicious position 0:47:10
Suspicious position 0:47:14
Suspicious position 0:47:16
Suspicious position 0:47:21 - 0:47:24
Suspicious position 0:47:26
Suspicious position 0:47:33
Suspicious position 0:47:36 - 0:47:37
Suspicious position 0:47:39
Suspicious position 0:47:43 - 0:47:47
Suspicious position 0:47:53
Suspicious position 0:47:55 - 0:47:56
Suspicious position 0:47:58
Suspicious position 0:48:01
Suspicious position 0:48:07 - 0:48:08
Suspicious position 0:48:10 - 0:48:11
Suspicious position 0:48:39
Suspicious position 0:48:51 - 0:48:52
Suspicious position 0:48:57
Suspicious position 0:49:01
Suspicious position 0:53:33
Suspicious position 0:53:36
Suspicious position 0:53:39
Suspicious position 0:55:43
Suspicious position 0:55:47 - 0:55:50
Suspicious position 0:55:58
Suspicious position 0:56:05
Suspicious position 0:56:09
Suspicious position 0:56:25
Suspicious position 0:56:41
Suspicious position 0:56:43 - 0:56:45
Suspicious position 0:56:48 - 0:56:55

Peak level 99.9 %
Range quality 98.4 %
Test CRC BE11ECB7
Copy CRC CD995E8C
Copy finished

There were errors


AccurateRip summary

Track 1 cannot be verified as accurate (confidence 1) [32BBB7D1], AccurateRip returned [016F7EC9]
Track 2 cannot be verified as accurate (confidence 1) [8A000989], AccurateRip returned [B31E2021]
Track 3 cannot be verified as accurate (confidence 1) [E7300BE6], AccurateRip returned [7FAE8FE6]
Track 4 cannot be verified as accurate (confidence 1) [EA55EEA2], AccurateRip returned [AA0BD49A]
Track 5 cannot be verified as accurate (confidence 1) [1E30E3D9], AccurateRip returned [60BF3801]
Track 6 cannot be verified as accurate (confidence 1) [04BACD98], AccurateRip returned [0C9E49A0]
Track 7 cannot be verified as accurate (confidence 1) [CA7448A0], AccurateRip returned [56CC2C58]
Track 8 cannot be verified as accurate (confidence 1) [A85C06E4], AccurateRip returned [C3D1AF9C]
Track 9 cannot be verified as accurate (confidence 1) [B4171A1F], AccurateRip returned [CF1A76B7]
Track 10 cannot be verified as accurate (confidence 1) [BFDD0733], AccurateRip returned [C192DFFB]
Track 11 cannot be verified as accurate (confidence 1) [9C494604], AccurateRip returned [E0966FBB]
Track 12 cannot be verified as accurate (confidence 1) [CF59F412], AccurateRip returned [7BF6DE47]
Track 13 cannot be verified as accurate (confidence 1) [133DC63C], AccurateRip returned [BE51E70E]

No tracks could be verified as accurate

End of status report


CUE
REM GENRE "Hard Rock"
REM DATE 2007
REM DISCID A50D590D
REM COMMENT "ExactAudioCopy v0.99pb5"
PERFORMER "White Wolf"
TITLE "Victim Of The Spotlight"
FILE "White Wolf - Victim Of The Spotlight.wav" WAVE
TRACK 01 AUDIO
TITLE "Eyes Of The World"
PERFORMER "White Wolf"
INDEX 01 00:00:00
TRACK 02 AUDIO
TITLE "Don't Turn Away"
PERFORMER "White Wolf"
INDEX 01 04:53:57
TRACK 03 AUDIO
TITLE "America (Hello Again)"
PERFORMER "White Wolf"
INDEX 01 08:19:25
TRACK 04 AUDIO
TITLE "Outo Of Control"
PERFORMER "White Wolf"
INDEX 01 14:21:02
TRACK 05 AUDIO
TITLE "Dreams Are For Ever"
PERFORMER "White Wolf"
INDEX 01 18:39:32
TRACK 06 AUDIO
TITLE "Price Of One"
PERFORMER "White Wolf"
INDEX 01 22:03:12
TRACK 07 AUDIO
TITLE "Hold On (Gettin' Tighter)"
PERFORMER "White Wolf"
INDEX 01 26:04:62
TRACK 08 AUDIO
TITLE "Nightmares"
PERFORMER "White Wolf"
INDEX 01 29:47:57
TRACK 09 AUDIO
TITLE "Night City"
PERFORMER "White Wolf"
INDEX 01 34:17:55
TRACK 10 AUDIO
TITLE "The Wolf"
PERFORMER "White Wolf"
INDEX 01 37:54:07
TRACK 11 AUDIO
TITLE "One More Lie"
PERFORMER "White Wolf"
INDEX 01 42:29:20
TRACK 12 AUDIO
TITLE "Victim Of The Spotlight"
PERFORMER "White Wolf"
INDEX 01 46:59:05
TRACK 13 AUDIO
TITLE "Hard Cold Stone"
PERFORMER "White Wolf"
INDEX 01 51:40:27


http://narod.ru/disk/32672261001/White%20Wolf%20-%20Victim%20Of%20The%20Spotlight%20(2007).rar.html

Все СПАСИБЫ достаются Олежки (rockempire)!

_________________
:dash: I am happy!


Top
 Profile E-mail  
 
 
PostPosted: 04 Jun 2012 
Хиппей (support team)
User avatar
Joined: 30 Jul 2007
Posts: 108153
Lоcаtion: Киев (Kyiv, UA)
Age: 45
Name: Andrey
:thanx:

mirror: MultiUp l Narod

_________________


Top
 Profile E-mail  
 
Display posts from previous:  Sort by  
Post new topic Reply to topic  [ 2 posts ] 

All times are UTC + 3 hours


Who is online

Users browsing this forum: No registered users and 1 guest


You cannot post new topics in this forum
You cannot reply to topics in this forum
You cannot edit your posts in this forum
You cannot delete your posts in this forum
You cannot post attachments in this forum

Search for:
Яндекс.Метрика
Powered by phpBB © 2000, 2002, 2005, 2007 phpBB Group