\m/ 80's metal \m/

Информационно-аналитический форум "80 см пыли" (In Search We Trust) "У нас никто никуда не спешит"
Me For You - http://me-4u.com
It is currently 21 Nov 2018

All times are UTC + 3 hours

Spoiler
Chat - temporary registration for foreign users (please leave your application here)







Post new topic Reply to topic  [ 16 posts ] 
Author Message
 
PostPosted: 05 May 2012 
А может смените мне статус?..
User avatar
Joined: 30 Aug 2009
Posts: 824
Lоcаtion: Ачинск, Красноярский край
Age: 32
Name: Стас
White Lightning - ...As Midnight Approaches (2010)

Image

1. Lesson One
2. Danger Man
3. Across the Blue Horizon
4. Hypocrite
5. London Nightlife
6. Right Between The Eyes
7. This Poison Fountain
8. Losing Streak
9. Frightened Children
10. This Poison Fountain
11. Hypocrite
12. The secrets In Your Eyes (demo)
13. Last Flight To Babylon (demo)
14. T.P.O.C (demo)
15. Last Flight To Babylon (demo)
16. Frightened Children (live)
17. Nailed ( By The Hand Of Mercy)
18. Under My Skin
19. Dealer
20. Swing Thing
21. Ticking
22. Everything She Said
23. Murder In Your Eyes
24. Cant Get Next To You
25. Civilised Society
26. Before I Close My eyes
27. Voodoo
28. Murder In Your Eyes (demo)
29. Cant Get Next To You (demo)
30. Nailed (By The Hand Of Mercy) (demo)
31. Dealer (demo)
32. Ticking (demo)
33. Paradise At A Price (demo)
34. Nailed (By The Hand Of Mercy) (live)

http://www.ebay.com/itm/ws/eBayISAPI.dl ... true&rt=nc


Top
 Profile E-mail  
 
 
PostPosted: 05 May 2012 
Хиппей (support team)
User avatar
Joined: 30 Jul 2007
Posts: 108243
Lоcаtion: Киев (Kyiv, UA)
Age: 45
Name: Andrey
Мдя... запрос из серии нежелательных :fingal:
Тут и мне понятно, что группа внимательно отслеживает, чтобы ссылок на него не было...

Остальным, на всяк случай - просьба не путать оригинальный альбом http://strappadometalblog.blogspot.com/ ... aches.html с новой компиляцией.

phpBB [youtube]

_________________


Top
 Profile E-mail  
 
 
PostPosted: 07 May 2012 
А может смените мне статус?..
User avatar
Joined: 30 Aug 2009
Posts: 824
Lоcаtion: Ачинск, Красноярский край
Age: 32
Name: Стас
phpBB [youtube]


Top
 Profile E-mail  
 
 
PostPosted: 25 Jul 2014 
Работнечег
User avatar
Joined: 28 Aug 2007
Posts: 5557
Lоcаtion: г. Москва
Age: 29
Name: Дима
Image

Year: 1990
Label: Workshop Records
Genre: Hard Rock
Coutry: UK
Format: Flac + Log + Cue + Covers/ MP3@320 + Covers
Size: 286 Mb/ 108 Mb

Line-Up:
Simon Pengilly - Electric/Acoustic Guitars, Additional Keyboards
Jeff Ward - Drums, Keyboards, Backing Vocals
Noel Jones - Vocals, Backing Vocals
Richard Max Goddard - Bass, Fretless Bass, Backing Vocals


Tracklist:
1. Lesson One 04:16
2. Danger Man 03:41
3. Across the Blue Horizon 05:15
4. Hypocrite 04:14
5. London Nightlife 05:42
6. Right Between The Eyes 03:56
7. This Poison Fountain 04:51
8. Losing Streak 04:06
9. Frightened Children 08:38

LOG
Exact Audio Copy V0.99 prebeta 5 from 4. May 2009

EAC extraction logfile from 23. July 2014, 13:31

White Lightning / ....As Midnight Approaches

Used drive : PIONEER DVD-RW DVR-116D Adapter: 0 ID: 0

Read mode : Secure
Utilize accurate stream : Yes
Defeat audio cache : Yes
Make use of C2 pointers : No

Read offset correction : 96
Overread into Lead-In and Lead-Out : No
Fill up missing offset samples with silence : Yes
Delete leading and trailing silent blocks : No
Null samples used in CRC calculations : Yes
Used interface : Native Win32 interface for Win NT & 2000

Used output format : User Defined Encoder
Selected bitrate : 32 kBit/s
Quality : High
Add ID3 tag : No
Command line compressor : C:\Program Files\Exact Audio Copy\Flac\flac.exe
Additional command line options : -6 -V %s


TOC of the extracted CD

Track | Start | Length | Start sector | End sector
---------------------------------------------------------
1 | 0:00.33 | 4:15.45 | 33 | 19202
2 | 4:16.03 | 3:41.35 | 19203 | 35812
3 | 7:57.38 | 5:15.15 | 35813 | 59452
4 | 13:12.53 | 4:14.17 | 59453 | 78519
5 | 17:26.70 | 5:41.55 | 78520 | 104149
6 | 23:08.50 | 3:56.13 | 104150 | 121862
7 | 27:04.63 | 4:50.57 | 121863 | 143669
8 | 31:55.45 | 4:05.70 | 143670 | 162114
9 | 36:01.40 | 8:37.40 | 162115 | 200929


Range status and errors

Selected range

Filename D:\Музыка\Lossless\White Lightning - ... As Midnight Approaches (1988) FLAC\White Lightning - ....As Midnight Approaches.wav

Peak level 100.0 %
Range quality 99.9 %
Copy CRC 783C651B
Copy OK

No errors occurred


AccurateRip summary

Track 1 not present in database
Track 2 not present in database
Track 3 not present in database
Track 4 not present in database
Track 5 not present in database
Track 6 not present in database
Track 7 not present in database
Track 8 not present in database
Track 9 not present in database

None of the tracks are present in the AccurateRip database

End of status report

CUE
REM GENRE "Heavy Metal, NWOBHM"
REM DATE 1988
REM DISCID 800A7709
REM COMMENT "ExactAudioCopy v0.99pb5"
PERFORMER "White Lightning"
TITLE "....As Midnight Approaches"
FILE "White Lightning - ....As Midnight Approaches.flac" WAVE
TRACK 01 AUDIO
TITLE "Lesson One"
PERFORMER "White Lightning"
INDEX 00 00:00:00
INDEX 01 00:00:33
TRACK 02 AUDIO
TITLE "Danger Man"
PERFORMER "White Lightning"
INDEX 00 04:13:45
INDEX 01 04:16:03
TRACK 03 AUDIO
TITLE "Blue Horizon"
PERFORMER "White Lightning"
INDEX 00 07:55:48
INDEX 01 07:57:38
TRACK 04 AUDIO
TITLE "Hypocrite"
PERFORMER "White Lightning"
INDEX 00 13:10:50
INDEX 01 13:12:53
TRACK 05 AUDIO
TITLE "London Nightlife"
PERFORMER "White Lightning"
INDEX 00 17:25:55
INDEX 01 17:26:70
TRACK 06 AUDIO
TITLE "Right Between The Eyes"
PERFORMER "White Lightning"
INDEX 00 23:07:05
INDEX 01 23:08:50
TRACK 07 AUDIO
TITLE "This Poison Fountain"
PERFORMER "White Lightning"
INDEX 00 27:02:70
INDEX 01 27:04:63
TRACK 08 AUDIO
TITLE "Losing Streak"
PERFORMER "White Lightning"
INDEX 00 31:53:40
INDEX 01 31:55:45
TRACK 09 AUDIO
TITLE "Frightened Children"
PERFORMER "White Lightning"
INDEX 00 35:59:53
INDEX 01 36:01:40


MP3
FLAC

Не совсем то, что искалось, но тоже пускай побудет, может кому пригодится! Неплохой рок, для меня довольно легковесно, но впечатление осталось приятным. Классная баллада London Nightlife :true:
P.S. Изначально альбом был выпущен на виниле в 1988 году, а первое издание на диске издали в 1990.
P.P.S. В инете много ссылок на этот релиз в мп3, но насколько я видел, нигде нет последней песни.


Top
 Profile E-mail  
 
 
PostPosted: 25 Jul 2014 
Partisanen - nicht kapitulieren!!
User avatar
Joined: 25 Dec 2011
Posts: 6755
Lоcаtion: партизанские леса
Age: 46
Name: Владимир
White Lightning - ...As Midnight Approaches (2010)
есть на Дизере, тока значится как 2014 и там типа 2 альбома -
Image

_________________
One more beer and Heavy Metal and I'm just fine!
старовер, куле... слово "блин" - до сих пор через Ъ говорю


Top
 Profile E-mail  
 
 
PostPosted: 25 Jul 2014 
Работнечег
User avatar
Joined: 28 Aug 2007
Posts: 5557
Lоcаtion: г. Москва
Age: 29
Name: Дима
Это переиздание. Если можно выдернуть, я был бы наверное не против послушать, хотя 34 песни за раз будет тяжелова-то :crazy:


Top
 Profile E-mail  
 
 
PostPosted: 25 Jul 2014 
Partisanen - nicht kapitulieren!!
User avatar
Joined: 25 Dec 2011
Posts: 6755
Lоcаtion: партизанские леса
Age: 46
Name: Владимир
выдернем... только, наверно не сегодня, ибо лениво :bore:

_________________
One more beer and Heavy Metal and I'm just fine!
старовер, куле... слово "блин" - до сих пор через Ъ говорю


Top
 Profile E-mail  
 
 
PostPosted: 25 Jul 2014 
Работнечег
User avatar
Joined: 28 Aug 2007
Posts: 5557
Lоcаtion: г. Москва
Age: 29
Name: Дима
не горит, как время будет. Заранее спасибо!


Top
 Profile E-mail  
 
 
PostPosted: 26 Jul 2014 
Хиппей (support team)
User avatar
Joined: 30 Jul 2007
Posts: 108243
Lоcаtion: Киев (Kyiv, UA)
Age: 45
Name: Andrey
:thanx:

mirror: Narod l M-Cloud

_________________


Top
 Profile E-mail  
 
 
PostPosted: 30 Jul 2014 
Хиппей (support team)
User avatar
Joined: 30 Jul 2007
Posts: 108243
Lоcаtion: Киев (Kyiv, UA)
Age: 45
Name: Andrey
Очень понравился альбом :meloman:
Неопределённая стилистика (art-rock, new wave, prog rock, hard rock и даже иногда хэви-гитары) и великолепные данные звонкого голоса вокалиста скучать не дают :dance:

7/10

зы. Начало 7-го трэка (13 секунда) слышны попёрдывания некие. Явно диск с дефектом (царапиной). Послушаю сейчас его же, но в мп3...

_________________


Top
 Profile E-mail  
 
 
PostPosted: 21 Aug 2014 
Rara avis
User avatar
Joined: 27 Jan 2009
Posts: 4686
Name: .
White Lightning - 2010 - ...As Midnight Approaches (34 songs)
https://yadi.sk/d/aisi-vfqaC8HR


Top
 Profile E-mail  
 
 
PostPosted: 24 Aug 2014 
Работнечег
User avatar
Joined: 28 Aug 2007
Posts: 5557
Lоcаtion: г. Москва
Age: 29
Name: Дима
Спасибо, Даш! :thanx:


Top
 Profile E-mail  
 
 
PostPosted: 28 Aug 2014 
Хиппей (support team)
User avatar
Joined: 30 Jul 2007
Posts: 108243
Lоcаtion: Киев (Kyiv, UA)
Age: 45
Name: Andrey
:thanx:

mirror: Narod l M-Cloud

_________________


Top
 Profile E-mail  
 
 
PostPosted: 11 Sep 2014 
Хиппей (support team)
User avatar
Joined: 30 Jul 2007
Posts: 108243
Lоcаtion: Киев (Kyiv, UA)
Age: 45
Name: Andrey
Слушаю вот уже несколько дней вариант от Даши (34 песни группы) и тащусь. Ну очень приятный мелодичный хард-рок, иногда слышны нотки таких стилей как арт-рок и AOR.

7/10

_________________


Top
 Profile E-mail  
 
 
PostPosted: 13 Sep 2014 
Alive Again
User avatar
Joined: 17 Dec 2008
Posts: 4744
Lоcаtion: Курск Воронеж Оскол
Age: 44
Name: Дмитрий
Даша, Дима :thanx:


Top
 Profile E-mail  
 
 
PostPosted: 10 May 2015 
Персональный статус
User avatar
Joined: 10 Jun 2009
Posts: 345
Name: jose gomes
Spasibo !!!!

:thanx:


Top
 Profile E-mail  
 
Display posts from previous:  Sort by  
Post new topic Reply to topic  [ 16 posts ] 

All times are UTC + 3 hours


Who is online

Users browsing this forum: No registered users and 3 guests


You cannot post new topics in this forum
You cannot reply to topics in this forum
You cannot edit your posts in this forum
You cannot delete your posts in this forum
You cannot post attachments in this forum

Search for:
Яндекс.Метрика
Powered by phpBB © 2000, 2002, 2005, 2007 phpBB Group