\m/ 80's metal \m/

Информационно-аналитический форум "80 см пыли" (In Search We Trust) "У нас никто никуда не спешит"
Me For You - http://me-4u.com
It is currently 21 Nov 2018

All times are UTC + 3 hours

Spoiler
Chat - temporary registration for foreign users (please leave your application here)







Post new topic Reply to topic  [ 24 posts ]  Go to page Previous  1, 2
Author Message
 
PostPosted: 18 Dec 2011 
Генеральный thrasher
User avatar
Joined: 03 Oct 2008
Posts: 3510
Lоcаtion: Ханты-Мансийский АО
Age: 43
Name: Сергей
Image

Year:1987 (2009 Re-Issue)
Style:Thrash Metal
Country:Poland
Format:Flac+Cue+Log
Size:379Mb

Tracklist:
1. Zadna Ofiary Twarz 01:56
2. Nocny Strach 05:01
3. Memento Mori 07:34
4. Ksiaze Wojny 03:28
5. Upadek Imeprium 04:10
6. Grozba 03:39
7. Zemsta Msciciela 02:52
8. Noz w Dloni 03:27
9. M.C. 04:56
10. Dziewczyna Na Sprzedaz 5:49
11. Telewizja Uczy Zyc 03:50
12. Thrashers 03:22

Cue
PERFORMER "Wilczy Pajak"
TITLE "Wilczy Pajak"
FILE "Wilczy Pajak - Wilczy Pajak.wav" WAVE
TRACK 01 AUDIO
TITLE "Zadna Oflary Twarz"
PERFORMER "Wilczy Pajak"
INDEX 01 00:00:00
TRACK 02 AUDIO
TITLE "Nocny Strach"
PERFORMER "Wilczy Pajak"
INDEX 00 01:56:56
INDEX 01 01:58:58
TRACK 03 AUDIO
TITLE "Momento Mori"
PERFORMER "Wilczy Pajak"
INDEX 00 06:57:72
INDEX 01 06:59:72
TRACK 04 AUDIO
TITLE "Ksiaze Wojny"
PERFORMER "Wilczy Pajak"
INDEX 00 14:31:11
INDEX 01 14:33:11
TRACK 05 AUDIO
TITLE "Upadek Imperium"
PERFORMER "Wilczy Pajak"
INDEX 00 17:59:18
INDEX 01 18:01:18
TRACK 06 AUDIO
TITLE "Grozba"
PERFORMER "Wilczy Pajak"
INDEX 00 22:09:48
INDEX 01 22:11:48
TRACK 07 AUDIO
TITLE "Zemsta Msciciela"
PERFORMER "Wilczy Pajak"
INDEX 00 25:48:55
INDEX 01 25:50:55
TRACK 08 AUDIO
TITLE "Noz W Dloni"
PERFORMER "Wilczy Pajak"
INDEX 00 28:40:55
INDEX 01 28:42:55
TRACK 09 AUDIO
TITLE "M.C."
PERFORMER "Wilczy Pajak"
INDEX 00 32:07:70
INDEX 01 32:09:70
TRACK 10 AUDIO
TITLE "Dziewczyna Na Sprzedaz"
PERFORMER "Wilczy Pajak"
INDEX 00 37:03:16
INDEX 01 37:04:39
TRACK 11 AUDIO
TITLE "Telewizja Uczy Zyc"
PERFORMER "Wilczy Pajak"
INDEX 00 42:52:48
INDEX 01 42:54:48
TRACK 12 AUDIO
TITLE "Thrashers"
PERFORMER "Wilczy Pajak"
INDEX 00 46:42:33
INDEX 01 46:44:33


Log
EAC extraction logfile from 5. December 2009, 12:15 for CD
Wilczy Pajak / Wilczy Pajak

Used drive : HL-DT-STDVD-RAM GSA-H58N Adapter: 0 ID: 1
Read mode : Secure with NO C2, accurate stream, disable cache
Read offset correction : 102
Overread into Lead-In and Lead-Out : No

Used output format : C:\Program Files\Exact Audio Copy\FLAC.EXE (User Defined Encoder)
128 kBit/s
Additional command line options : -6 -V %s

Other options :
Fill up missing offset samples with silence : Yes
Delete leading and trailing silent blocks : No
Installed external ASPI interface


Range status and errors
Selected range
Filename E:\ROBOCZY\Wilczy Pajak - Wilczy Pajak.flac.wav

Peak level 98.8 %
Range quality 100.0 %
CRC CE1463A2
Copy OK

No errors occured

End of status report


Spectrum
Attachment:
spectrum.jpg
spectrum.jpg [ 384.86 KiB | Viewed 196 times ]


Wilczy Pajak

Кто там спрашивал этот альбом? Диск мне в своё время так и не попался. Так что релиз от MMT.


Top
 Profile  
 
 
PostPosted: 21 Dec 2011 
Хиппей (support team)
User avatar
Joined: 30 Jul 2007
Posts: 108243
Lоcаtion: Киев (Kyiv, UA)
Age: 45
Name: Andrey
Так шо там со сканами полными - зажали? :rabo:

_________________


Top
 Profile E-mail  
 
 
PostPosted: 22 Dec 2011 
дядя Миша
User avatar
Joined: 17 Oct 2008
Posts: 3074
Lоcаtion: USSR
Age: 56
Name: Khy
300 рублей за три скана, специально для тебя делал. Высылай деньги. :cry:


Top
 Profile  
 
 
PostPosted: 22 Dec 2011 
Хиппей (support team)
User avatar
Joined: 30 Jul 2007
Posts: 108243
Lоcаtion: Киев (Kyiv, UA)
Age: 45
Name: Andrey
Миш, ты хоть прикидываешь в какое щас неудобное положение поставил Серёгу? :umnik:

Я то сканы запощу без проблем, но ты хоть свои пометил, чтобы не было затем здесь воя, что у тебя спёрли честно отсканенные картинки? :crazy:

_________________


Top
 Profile E-mail  
 
 
PostPosted: 22 Dec 2011 
дядя Миша
User avatar
Joined: 17 Oct 2008
Posts: 3074
Lоcаtion: USSR
Age: 56
Name: Khy
Ты бы лучше своё , что запостил. А то, только болтаешь..


Top
 Profile  
 
Display posts from previous:  Sort by  
Post new topic Reply to topic  [ 24 posts ]  Go to page Previous  1, 2

All times are UTC + 3 hours


Who is online

Users browsing this forum: No registered users and 3 guests


You cannot post new topics in this forum
You cannot reply to topics in this forum
You cannot edit your posts in this forum
You cannot delete your posts in this forum
You cannot post attachments in this forum

Search for:
Яндекс.Метрика
Powered by phpBB © 2000, 2002, 2005, 2007 phpBB Group