\m/ 80's metal \m/

Информационно-аналитический форум "80 см пыли" (In Search We Trust) "У нас никто никуда не спешит"
Me For You - http://me-4u.com
It is currently 18 Nov 2018

All times are UTC + 3 hours

Spoiler
Chat - temporary registration for foreign users (please leave your application here)







Post new topic Reply to topic  [ 11 posts ] 
Author Message
 
PostPosted: 16 Dec 2011 
Прокъмитолист
User avatar
Joined: 12 Aug 2007
Posts: 6504
Lоcаtion: Санктъ-Петербуркъ
Age: 51
Name: Олекъ
Wolf Spider [1991] Hue Of Evil (2009 remaster)
Metal Mind Productions (MMP CD 0665 DG)

Image

Genre: technical thrash metal
Country: Poland
Contents: flac/cue/log/scans
Size: 519 MB

Tracklist:
01. Sex Shop
02. It's Only Vodka
03. Sex Maniacs
04. Mafia
05. Homeless Children
06. Terrorists
07. Down The Drain
08. Puppet
09. Verge Of Sanity
. . . bonus tracks:
10. Girl For Sale
11. Television
12. Mafia (live)
13. Bezdomne Dzieci (live)
14. It's Only Vodka (live)

Playtime: 69:42

Lineup:
Tomasz Zwierzchowski - vocals
Piotr Mankowski - guitars
Dariusz Popowicz - guitars
Maciej Matuszak - bass
Tomasz Goehs - drums

EAC log
Code:
Exact Audio Copy V1.0 beta 1 from 15. November 2010

EAC extraction logfile from 21. June 2011, 16:06

Wolf Spider / Hue Of Evil (2009)

Used drive  : Optiarc DVD RW AD-7240S   Adapter: 2  ID: 0

Read mode               : Secure
Utilize accurate stream : Yes
Defeat audio cache      : Yes
Make use of C2 pointers : No

Read offset correction                      : 48
Overread into Lead-In and Lead-Out          : No
Fill up missing offset samples with silence : Yes
Delete leading and trailing silent blocks   : No
Null samples used in CRC calculations       : Yes
Used interface                              : Native Win32 interface for Win NT & 2000

Used output format : Internal WAV Routines
Sample format      : 44.100 Hz; 16 Bit; Stereo


TOC of the extracted CD

     Track |   Start  |  Length  | Start sector | End sector
    ---------------------------------------------------------
        1  |  0:00.00 |  2:45.58 |         0    |    12432   
        2  |  2:45.58 |  6:34.44 |     12433    |    42026   
        3  |  9:20.27 |  3:50.39 |     42027    |    59315   
        4  | 13:10.66 |  4:43.59 |     59316    |    80599   
        5  | 17:54.50 |  4:18.00 |     80600    |    99949   
        6  | 22:12.50 |  6:03.32 |     99950    |   127206   
        7  | 28:16.07 |  5:24.68 |    127207    |   151574   
        8  | 33:41.00 |  3:20.18 |    151575    |   166592   
        9  | 37:01.18 |  7:13.13 |    166593    |   199080   
       10  | 44:14.31 |  5:49.68 |    199081    |   225323   
       11  | 50:04.24 |  3:49.57 |    225324    |   242555   
       12  | 53:54.06 |  4:42.26 |    242556    |   263731   
       13  | 58:36.32 |  4:12.59 |    263732    |   282690   
       14  | 62:49.16 |  6:53.01 |    282691    |   313666   


Range status and errors

Selected range

     Filename D:\spiralarch\Wolf Spider - Hue Of Evil (2009).wav

     Peak level 100.0 %
     Extraction speed 0.4 X
     Range quality 100.0 %
     Copy CRC D14BE842
     Copy OK

No errors occurred


AccurateRip summary

Track  1  not present in database
Track  2  not present in database
Track  3  not present in database
Track  4  not present in database
Track  5  not present in database
Track  6  not present in database
Track  7  not present in database
Track  8  not present in database
Track  9  not present in database
Track 10  not present in database
Track 11  not present in database
Track 12  not present in database
Track 13  not present in database
Track 14  not present in database

None of the tracks are present in the AccurateRip database

End of status report

==== Log checksum D2616864D862C088DB721FE6B9AD332F9CB3EE19CCC967ECAB7B584D1B19B02E ====

Этот альбом по сути является вторым альбомом Wolf Spider, т.к. был записан еще в 1989 году (а его польская версия вообще в 1988-м), но увидел свет лишь в 1991-м. И на мой взгляд, в музыкальном плане он не дотягивает до двух последующих альбомов, хотя уже "где-то рядом". Выкладываю здесь свой релиз с ММТ по просьбе Сергея thorbeorn.

_________________
прокъметол - это музыко, от которово есть прок (ы)


Top
 Profile  
 
 
PostPosted: 16 Dec 2011 
Генеральный thrasher
User avatar
Joined: 03 Oct 2008
Posts: 3506
Lоcаtion: Ханты-Мансийский АО
Age: 43
Name: Сергей
СПАСИБО!


Top
 Profile  
 
 
PostPosted: 16 Dec 2011 
Motörheadache
User avatar
Joined: 04 Feb 2010
Posts: 1294
Lоcаtion: Впереди- горы,позади-степи
Age: 45
Name: Александр
Олеж,с твоего позволения тоже утяну,и скажу СПАСИБО ! :thanx:

_________________
Eine Nation, Ein Land, Eine Schnaps!

Наш священный долг:защищать Родину,и соблюдать правила личной гигиены....!


Top
 Profile E-mail  
 
 
PostPosted: 16 Dec 2011 
Хиппей (support team)
User avatar
Joined: 30 Jul 2007
Posts: 108107
Lоcаtion: Киев (Kyiv, UA)
Age: 45
Name: Andrey
:thanx:

Вроде качал, но грех не качнуть еще пару раз :dance:

mirror: Narod

_________________


Top
 Profile E-mail  
 
 
PostPosted: 17 Dec 2011 
ТрэшЭрос
User avatar
Joined: 18 Jul 2011
Posts: 2300
Lоcаtion: Гулькевичи
Age: 43
Name: Александр
spiralarch, :thanx:
Остался неуслышанным дебютник - "Wilczy Pajak" 1989 года. Мож е у каво? :true:
Саныч, спс за Народ ;)

_________________
Thrash no trash!!!


Top
 Profile E-mail  
 
 
PostPosted: 17 Dec 2011 
Хиппей (support team)
User avatar
Joined: 30 Jul 2007
Posts: 108107
Lоcаtion: Киев (Kyiv, UA)
Age: 45
Name: Andrey
MetallicAS wrote:
"Wilczy Pajak" 1989 года

Metal Mind переиздавали.
Я не помню, как там со звуком :vic: Явно у кого-то есть вся дискография и переиздания.

_________________


Top
 Profile E-mail  
 
 
PostPosted: 17 Dec 2011 
Прокъмитолист
User avatar
Joined: 12 Aug 2007
Posts: 6504
Lоcаtion: Санктъ-Петербуркъ
Age: 51
Name: Олекъ
Scatterbrain wrote:
Явно у кого-то есть

дык везде валом. на ММТ, МеталМасс, да и на рутрекере наверняка :pardon:

_________________
прокъметол - это музыко, от которово есть прок (ы)


Top
 Profile  
 
 
PostPosted: 17 Dec 2011 
Хиппей (support team)
User avatar
Joined: 30 Jul 2007
Posts: 108107
Lоcаtion: Киев (Kyiv, UA)
Age: 45
Name: Andrey
spiralarch wrote:
да и на рутрекере наверняка

Тута точно нету. У Игоря давно все релизы сдохли.
Щас на ММТ гляну :dance:

_________________


Top
 Profile E-mail  
 
 
PostPosted: 17 Dec 2011 
Хиппей (support team)
User avatar
Joined: 30 Jul 2007
Posts: 108107
Lоcаtion: Киев (Kyiv, UA)
Age: 45
Name: Andrey
Есть. Качаю. Хотя полных сидов пока нету.

_________________


Top
 Profile E-mail  
 
 
PostPosted: 18 Dec 2011 
Хиппей (support team)
User avatar
Joined: 30 Jul 2007
Posts: 108107
Lоcаtion: Киев (Kyiv, UA)
Age: 45
Name: Andrey
:arrow: viewtopic.php?f=196&t=10321 Wilczy Pajak - Wilczy Pajak 1987 (2009 Re-Issue) :losik:

_________________


Top
 Profile E-mail  
 
 
PostPosted: 18 Dec 2011 
ТрэшЭрос
User avatar
Joined: 18 Jul 2011
Posts: 2300
Lоcаtion: Гулькевичи
Age: 43
Name: Александр
Scatterbrain wrote:
:arrow: viewtopic.php?f=196&t=10321 Wilczy Pajak - Wilczy Pajak 1987 (2009 Re-Issue) :losik:

Подяку моя не знає меж! :thanx: and :true:

_________________
Thrash no trash!!!


Top
 Profile E-mail  
 
Display posts from previous:  Sort by  
Post new topic Reply to topic  [ 11 posts ] 

All times are UTC + 3 hours


Who is online

Users browsing this forum: No registered users and 1 guest


You cannot post new topics in this forum
You cannot reply to topics in this forum
You cannot edit your posts in this forum
You cannot delete your posts in this forum
You cannot post attachments in this forum

Search for:
Яндекс.Метрика
Powered by phpBB © 2000, 2002, 2005, 2007 phpBB Group