\m/ 80's metal \m/

Информационно-аналитический форум "80 см пыли" (In Search We Trust) "У нас никто никуда не спешит"
Me For You - http://me-4u.com
It is currently 19 Nov 2018

All times are UTC + 3 hours

Spoiler
Chat - temporary registration for foreign users (please leave your application here)







Post new topic Reply to topic  [ 22 posts ]  Go to page 1, 2  Next
Author Message
 
PostPosted: 06 Oct 2011 
Труъ
Joined: 01 Jan 2010
Posts: 118
Lоcаtion: MetaLWarrioR
Name: Сергей
Witchfynde - Cloak & Dagger (1983)
Image
Исполнитель: Witchfynde
Альбом: Cloak & Dagger
Страна: United Kingdom
Жанр: NWOBHM
Год: 1983
Формат: Lossless
Размер: ??? Мб
Файлообменник: Любой
Источник: Надежный

Tracklist:
01.The Devil's Playground
02.Crystal Gazing
03.I'd Rather Go Wild
04.Somewhere To Hide
05.Cloak And Dagger
06.Cry Wolf
07.Start Counting
08.Living For Memories
09.Rock And Roll
10.Stay Away
11.Fra Diabolo

Lineup:
Luther Beltz - vocals
Montalo - guitars
Gra Scoresby - drums
Pete Surgey - bass


Top
 Profile E-mail  
 
 
PostPosted: 07 Oct 2011 
Хиппей (support team)
User avatar
Joined: 30 Jul 2007
Posts: 108153
Lоcаtion: Киев (Kyiv, UA)
Age: 45
Name: Andrey
Хотел было сказать, что где-то видел этого лося, но... Гугель подсказал, что ошибаюсь http://rutracker.org/forum/viewtopic.php?t=3152145 :oops:

Явно у Миши Спидика есть такое.
Если что, завтра проверю.

_________________


Top
 Profile E-mail  
 
 
PostPosted: 07 Oct 2011 
Хиппей (support team)
User avatar
Joined: 30 Jul 2007
Posts: 108153
Lоcаtion: Киев (Kyiv, UA)
Age: 45
Name: Andrey
Нету :(

_________________


Top
 Profile E-mail  
 
 
PostPosted: 07 Oct 2011 
Труъ
Joined: 01 Jan 2010
Posts: 118
Lоcаtion: MetaLWarrioR
Name: Сергей
На "rutracker" есть все, кроме этого альбома, выкладывал "Евгений Академик" (кроме Lords Оf Sin + Anthems), у него тоже нет "Cloak & Dagger"! Самому в интернете не удалось найти...


Top
 Profile E-mail  
 
 
PostPosted: 08 Oct 2011 
Хиппей (support team)
User avatar
Joined: 30 Jul 2007
Posts: 108153
Lоcаtion: Киев (Kyiv, UA)
Age: 45
Name: Andrey
Мож этот альбом фуфло полное? :oops:

_________________


Top
 Profile E-mail  
 
 
PostPosted: 08 Oct 2011 
Почётный металлург
User avatar
Joined: 15 Sep 2007
Posts: 4357
Lоcаtion: Хабаровск
Age: 58
Name: чуть выше
Scatterbrain wrote:
фуфло полное?

Да не, нормальный. Местами на Джудик похож.

_________________
Коль будешь людей ты ослами честить,
тебе человеком меж них не прослыть!
(Саади, персидский поэт, 13в.)


Top
 Profile  
 
 
PostPosted: 08 Oct 2011 
Труъ
Joined: 01 Jan 2010
Posts: 118
Lоcаtion: MetaLWarrioR
Name: Сергей
Scatterbrain wrote:
Мож этот альбом фуфло полное?

Отличный альбом! Вообще группа классная!


Top
 Profile E-mail  
 
 
PostPosted: 08 Oct 2011 
Анатолий
User avatar
Joined: 18 Oct 2008
Posts: 3174
Lоcаtion: Армавир
Age: 41
Name: Анатолий
Нет, этот альбом очень даже не плох. Так что, тоже не отказался бы от лося.


Top
 Profile E-mail  
 
 
PostPosted: 08 Oct 2011 
Хиппей (support team)
User avatar
Joined: 30 Jul 2007
Posts: 108153
Lоcаtion: Киев (Kyiv, UA)
Age: 45
Name: Andrey
А может сбросимся на переиздание? :vic:

http://www.ebay.com/itm/Witchfynde-Cloa ... 500wt_1156

_________________


Top
 Profile E-mail  
 
 
PostPosted: 10 Oct 2011 
Труъ
Joined: 01 Jan 2010
Posts: 118
Lоcаtion: MetaLWarrioR
Name: Сергей
Scatterbrain wrote:
А может сбросимся на переиздание?

А каким образом? С кем?


Top
 Profile E-mail  
 
 
PostPosted: 10 Oct 2011 
Хиппей (support team)
User avatar
Joined: 30 Jul 2007
Posts: 108153
Lоcаtion: Киев (Kyiv, UA)
Age: 45
Name: Andrey
Да со мной, хотя бы. Только мне сам альбом не нужен.
Могу в долю войти, а там уже разбирайтесь, кому нужен этот альбом именно на диске :vic:

_________________


Top
 Profile E-mail  
 
 
PostPosted: 03 Jul 2012 
***


Last edited by Вася_металлист_2012 on 14 Dec 2012, edited 1 time in total.

Top
  
 
 
PostPosted: 04 Jul 2012 
Хиппей (support team)
User avatar
Joined: 30 Jul 2007
Posts: 108153
Lоcаtion: Киев (Kyiv, UA)
Age: 45
Name: Andrey
Естественно, согласен :dance:

_________________


Top
 Profile E-mail  
 
 
PostPosted: 04 Jul 2012 
***


Last edited by Вася_металлист_2012 on 14 Dec 2012, edited 1 time in total.

Top
  
 
 
PostPosted: 04 Jul 2012 
5-speed satisfactor
User avatar
Joined: 16 Feb 2009
Posts: 3620
Lоcаtion: New York, USA
Age: 40
Name: Leonid
Э. У меня вроде есть. Надо посотреть. Не знаю, когда руки дойдут рипнуть.

_________________
Death rules! Metal to all who oppose!


Top
 Profile  
 
 
PostPosted: 05 Jul 2012 
Хиппей (support team)
User avatar
Joined: 30 Jul 2007
Posts: 108153
Lоcаtion: Киев (Kyiv, UA)
Age: 45
Name: Andrey
О, Лёнь, не очень спеша, глянь, плиз :dance:
Артёма пока не будем тревожить за зря :pardon:

_________________


Top
 Profile E-mail  
 
 
PostPosted: 29 Nov 2014 
Работнечег
User avatar
Joined: 28 Aug 2007
Posts: 5528
Lоcаtion: г. Москва
Age: 29
Name: Дима
Image

Year: 2006
Label: Lemon Recordings
Genre: Heavy Metal
Coutry: UK
Format: Flac + Log + Cue + Covers
Size: 270 Mb

Line-Up:
Luther Beltz - Vocals
Montalo - Guitars
Gra Scoresby - Drums
Pete Surgey - Bass


Tracklist:
1. The Devil's Playground 04:24
2. Crystal Gazing 04:45
3. I'd Rather Go Wild 04:37
4. Somewhere to Hide 03:07
5. Cloak and Dagger 03:38
6. Cry Wolf 04:08
7. Start Counting 03:40
8. Living for Memories 03:53
9. Rock and Roll 03:06
10. Stay Away 03:44
11. Fra Diabolo 01:35

LOG
Exact Audio Copy V0.99 prebeta 5 from 4. May 2009

EAC extraction logfile from 23. November 2014, 18:36

Witchfynde / Cloak & Dagger

Used drive : PIONEER DVD-RW DVR-221 Adapter: 2 ID: 1

Read mode : Secure
Utilize accurate stream : Yes
Defeat audio cache : Yes
Make use of C2 pointers : No

Read offset correction : 6
Overread into Lead-In and Lead-Out : No
Fill up missing offset samples with silence : Yes
Delete leading and trailing silent blocks : No
Null samples used in CRC calculations : Yes
Used interface : Native Win32 interface for Win NT & 2000

Used output format : User Defined Encoder
Selected bitrate : 32 kBit/s
Quality : High
Add ID3 tag : No
Command line compressor : C:\Program Files\Exact Audio Copy\Flac\flac.exe
Additional command line options : -6 -V %s


TOC of the extracted CD

Track | Start | Length | Start sector | End sector
---------------------------------------------------------
1 | 0:00.00 | 4:42.21 | 0 | 21170
2 | 4:42.21 | 4:46.57 | 21171 | 42677
3 | 9:29.03 | 4:36.69 | 42678 | 63446
4 | 14:05.72 | 3:06.69 | 63447 | 77465
5 | 17:12.66 | 3:39.25 | 77466 | 93915
6 | 20:52.16 | 4:08.58 | 93916 | 112573
7 | 25:00.74 | 3:40.54 | 112574 | 129127
8 | 28:41.53 | 3:51.65 | 129128 | 146517
9 | 32:33.43 | 3:05.53 | 146518 | 160445
10 | 35:39.21 | 3:46.22 | 160446 | 177417
11 | 39:25.43 | 1:27.50 | 177418 | 183992


Range status and errors

Selected range

Filename D:\Музыка\Lossless\Witchfynde - Cloak & Dagger (1983)(Re-issued In 2006)\Witchfynde - Cloak & Dagger.wav

Peak level 100.0 %
Range quality 100.0 %
Copy CRC 09A55D94
Copy OK

No errors occurred

End of status report

CUE
REM GENRE "Heavy Metal"
REM DATE 2006
REM DISCID 8709950B
REM COMMENT "ExactAudioCopy v0.99pb5"
PERFORMER "Witchfynde"
TITLE "Cloak & Dagger"
FILE "Witchfynde - Cloak & Dagger.flac" WAVE
TRACK 01 AUDIO
TITLE "The Devils Playground"
PERFORMER "Witchfynde"
FLAGS DCP
INDEX 01 00:00:00
TRACK 02 AUDIO
TITLE "Crystal Gazing"
PERFORMER "Witchfynde"
FLAGS DCP
INDEX 00 04:40:21
INDEX 01 04:42:21
TRACK 03 AUDIO
TITLE "I'd Rather Go Wild"
PERFORMER "Witchfynde"
FLAGS DCP
INDEX 00 09:27:03
INDEX 01 09:29:03
TRACK 04 AUDIO
TITLE "Somewhere To Hide"
PERFORMER "Witchfynde"
FLAGS DCP
INDEX 00 14:03:72
INDEX 01 14:05:72
TRACK 05 AUDIO
TITLE "Cloak & Dagger"
PERFORMER "Witchfynde"
FLAGS DCP
INDEX 00 17:10:66
INDEX 01 17:12:66
TRACK 06 AUDIO
TITLE "Cry Wolf"
PERFORMER "Witchfynde"
FLAGS DCP
INDEX 00 20:50:16
INDEX 01 20:52:16
TRACK 07 AUDIO
TITLE "Start Counting"
PERFORMER "Witchfynde"
FLAGS DCP
INDEX 00 24:58:74
INDEX 01 25:00:74
TRACK 08 AUDIO
TITLE "Living For Memories"
PERFORMER "Witchfynde"
FLAGS DCP
INDEX 00 28:39:53
INDEX 01 28:41:53
TRACK 09 AUDIO
TITLE "Rock & Roll"
PERFORMER "Witchfynde"
FLAGS DCP
INDEX 00 32:31:43
INDEX 01 32:33:43
TRACK 10 AUDIO
TITLE "Stay Away"
PERFORMER "Witchfynde"
FLAGS DCP
INDEX 00 35:37:21
INDEX 01 35:39:21
TRACK 11 AUDIO
TITLE "Fra Diablo"
PERFORMER "Witchfynde"
FLAGS DCP
INDEX 00 39:23:43
INDEX 01 39:25:43


FLAC

Добротный альбом! Вторая половина альбома на мой взгляд намного сильнее первой, в которой можно выделить разве что Somewhere to Hide.
P.S. Сканы здесь не все.
P.P.S. Первый рип с новым приводом, вроде бы настройки все верно поставил, но на всякий случай проверьте. Если что, переделаю.


Top
 Profile E-mail  
 
 
PostPosted: 29 Nov 2014 
Прокъмитолист
User avatar
Joined: 12 Aug 2007
Posts: 6504
Lоcаtion: Санктъ-Петербуркъ
Age: 51
Name: Олекъ
спасибо, Димк! :thanx:

_________________
прокъметол - это музыко, от которово есть прок (ы)


Top
 Profile  
 
 
PostPosted: 29 Nov 2014 
Генеральный thrasher
User avatar
Joined: 03 Oct 2008
Posts: 3506
Lоcаtion: Ханты-Мансийский АО
Age: 43
Name: Сергей
Димка опять диск прикупил!А вот этот рип с винила у Эмиля давно уже лежит - http://heavymetalrarities.com/forum/vie ... 26&t=14841


Top
 Profile  
 
 
PostPosted: 29 Nov 2014 
Я набрал 1000 сообщений!
Joined: 24 Oct 2009
Posts: 2097
Lоcаtion: Оренбург
Age: 55
Name: Юра
Дима :true:

_________________
:dash: I am happy!


Top
 Profile E-mail  
 
Display posts from previous:  Sort by  
Post new topic Reply to topic  [ 22 posts ]  Go to page 1, 2  Next

All times are UTC + 3 hours


Who is online

Users browsing this forum: No registered users and 1 guest


You cannot post new topics in this forum
You cannot reply to topics in this forum
You cannot edit your posts in this forum
You cannot delete your posts in this forum
You cannot post attachments in this forum

Search for:
Яндекс.Метрика
Powered by phpBB © 2000, 2002, 2005, 2007 phpBB Group