\m/ 80's metal \m/

Информационно-аналитический форум "80 см пыли" (In Search We Trust) "У нас никто никуда не спешит"
Me For You - http://me-4u.com
It is currently 12 Dec 2018

All times are UTC + 3 hours

Spoiler
Chat - temporary registration for foreign users (please leave your application here)







Post new topic Reply to topic  [ 16 posts ] 
Author Message
 
PostPosted: 24 Jan 2009 
труъ антисионист
User avatar
Joined: 01 Aug 2007
Posts: 4541
Lоcаtion: Откуда и большинство из нас
Age: 38
Name: Дядя Вова
Image

Группа: Wild Dogs
Альбом: Reign of Terror
Год: 1987 - Reissued 2000
Лейбл: Enigma
Стиль: Heavy Metal
Страна: USA
Формат: APE + Cue + Log
Размер: 500 Mb

***********************************************************************************************
За релиз нужно сказать огромное спасибо ребятам с ММТ
***********************************************************************************************

Line Up:

Vocals : Michael Furlong
Guitars : Jeff Mark
Bass : Rick Bartel
Drums : Deen Castronovo



Tracks:
1. Metal Fuel (In the Blood)
2. Man Against Machine
3. Call of the Dark
4. Siberian Vacation
5. Psychoradio
6. Streets of Berlin
7. Spellshock
8. Reign of Terror
9. We Rule the Night
10. Madhouse
11. Livin on the Bad Side
12. Metal Free America
13. Man On Fire
14. Thanx For The Ride
15. Dead To The World
16. Screaming The Night Away



===================================DOWNLOAD========================================

Narod

_________________
Image
Image


Top
 Profile  
 
 
PostPosted: 24 Jan 2009 
Эх, добрый я
User avatar
Joined: 04 Nov 2008
Posts: 315
Age: 45
Name: Вадим
На этом диске 10-16 трэки нереализованный альбом Dead to the World-1989 - It's an album never released,for some problem with the old label


Top
 Profile  
 
 
PostPosted: 24 Jan 2009 
udo
User avatar
Joined: 01 Mar 2008
Posts: 2343
Lоcаtion: Краснодар
Age: 47
Name: РОМАН
Glot wrote:
За релиз нужно сказать огромное спасибо ребятам с ММТ

пацаны огромное спасибо


Top
 Profile E-mail  
 
 
PostPosted: 25 Jan 2009 
Почётный металлург
User avatar
Joined: 15 Sep 2007
Posts: 4357
Lоcаtion: Хабаровск
Age: 58
Name: чуть выше
Конечно, всем гран мерси!

_________________
Коль будешь людей ты ослами честить,
тебе человеком меж них не прослыть!
(Саади, персидский поэт, 13в.)


Top
 Profile  
 
 
PostPosted: 25 Jan 2009 
Анатолий
User avatar
Joined: 18 Oct 2008
Posts: 3243
Lоcаtion: Армавир
Age: 41
Name: Анатолий
Спасибо большое за возможность послушать ЭТО! :thanx:

Тут такое дело. Почему-то композиции местами поменялись... :fingal:

Трек-лист слегонца перепутан. Вот эти композиции не в той последовательности звучат: 10. Madhouse - 11. Livin on the Bad Side.

Или это так у одного меня случилось? :umnik:


Last edited by Privateer on 25 Jan 2009, edited 1 time in total.

Top
 Profile E-mail  
 
 
PostPosted: 25 Jan 2009 
Power Metal Maniac
User avatar
Joined: 09 Aug 2008
Posts: 6426
Lоcаtion: Москва
Age: 40
Name: Егор
:true: :thanx:

_________________
Long Live Metal!


Top
 Profile  
 
 
PostPosted: 26 Jan 2009 
Хиппей (support team)
User avatar
Joined: 30 Jul 2007
Posts: 108837
Lоcаtion: Киев (Kyiv, UA)
Age: 45
Name: Andrey
Vadim wrote:
На этом диске 10-16 трэки нереализованный альбом Dead to the World-1989

Угу.
Privateer wrote:
Трек-лист слегонца перепутан. Вот эти композиции не в той последовательности звучат: 10. Madhouse - 11. Livin on the Bad Side

Угу.
Glot wrote:
Reign of Terror 1987 - Reissued 2000

:thanx:


Top
 Profile E-mail  
 
 
PostPosted: 26 Jan 2009 
Анатолий
User avatar
Joined: 18 Oct 2008
Posts: 3243
Lоcаtion: Армавир
Age: 41
Name: Анатолий
Scatterbrain wrote:
Угу.


Ну и как такое могло случиться, а? И самое главное, можно ли это поправить в CUE без последствий?


Top
 Profile E-mail  
 
 
PostPosted: 26 Jan 2009 
Хиппей (support team)
User avatar
Joined: 30 Jul 2007
Posts: 108837
Lоcаtion: Киев (Kyiv, UA)
Age: 45
Name: Andrey
Толь, сорри, я еще не изучал что к чему. Угукнул просто так - у меня этот альбом в мп3, там такой же трэклист :oops:


Top
 Profile E-mail  
 
 
PostPosted: 07 Aug 2018 
Хиппей (support team)
User avatar
Joined: 30 Jul 2007
Posts: 108837
Lоcаtion: Киев (Kyiv, UA)
Age: 45
Name: Andrey
Кто-то может перезалить данный рип или переиздание?

А то явно тута https://rutracker.org/forum/viewtopic.php?t=4191396 не тот звук :vic:

_________________


Top
 Profile E-mail  
 
 
PostPosted: 07 Aug 2018 
Хиппей (support team)
User avatar
Joined: 30 Jul 2007
Posts: 108837
Lоcаtion: Киев (Kyiv, UA)
Age: 45
Name: Andrey
Glot wrote:
За релиз нужно сказать огромное спасибо ребятам с ММТ

Тыкнул в их ссылку - пока стояк http://prntscr.com/kfi086 :pardon:

_________________


Top
 Profile E-mail  
 
 
PostPosted: 08 Oct 2018 
Хиппей (support team)
User avatar
Joined: 30 Jul 2007
Posts: 108837
Lоcаtion: Киев (Kyiv, UA)
Age: 45
Name: Andrey
Glot wrote:
За релиз нужно сказать огромное спасибо ребятам с ММТ

Тыкнул в их ссылку - пока стояк http://prntscr.com/kfi086 :pardon:

Ой, давно скачал же.
Ща перезалью.
Альбом и качество звука понравились :meloman:

_________________


Top
 Profile E-mail  
 
 
PostPosted: 08 Oct 2018 
Хиппей (support team)
User avatar
Joined: 30 Jul 2007
Posts: 108837
Lоcаtion: Киев (Kyiv, UA)
Age: 45
Name: Andrey
Wild.Dogs.[1987-2000].[CD].Reign.Of.Terror.[EAC-APE].by.ferroman.[MeTaLMaDNeSS.TeaM]

Image Image

mirror: Uloz l Drop l Narod l M-Cloud

log
EAC extraction logfile from 6. September 2006, 13:31 for CD
Wild Dogs / Reign Of Terror

Used drive : SONY DVD RW DW-D56A Adapter: 1 ID: 0
Read mode : Secure with NO C2, accurate stream, disable cache
Read offset correction : 12
Overread into Lead-In and Lead-Out : No

Used output format : C:\Archivos de programa\Exact Audio Copy\MAC.EXE (Monkey's Audio Lossless Encoder)
High Lossless Compression

Other options :
Fill up missing offset samples with silence : Yes
Delete leading and trailing silent blocks : No
Native Win32 interface for Win NT & 2000


Range status and errors
Selected range
Filename C:\EAC APE\Wild Dogs (1987) (Reign Of Terror)\Wild Dogs.wav

Peak level 100.0 %
Range quality 100.0 %
CRC 50C4E49E
Copy OK

No errors occured

End of status report

cue
PERFORMER "Wild Dogs"
TITLE "Reign Of Terror"
FILE "Wild Dogs - 1987.ape" WAVE
TRACK 01 AUDIO
TITLE "Metal Fuel"
PERFORMER "Wild Dogs"
INDEX 01 00:00:00
TRACK 02 AUDIO
TITLE "Man Against Machine"
PERFORMER "Wild Dogs"
INDEX 01 04:55:56
TRACK 03 AUDIO
TITLE "Call Of The Dark"
PERFORMER "Wild Dogs"
INDEX 01 08:43:55
TRACK 04 AUDIO
TITLE "Siberian Vacation"
PERFORMER "Wild Dogs"
INDEX 01 13:01:21
TRACK 05 AUDIO
TITLE "Psychoradio"
PERFORMER "Wild Dogs"
INDEX 01 17:39:17
TRACK 06 AUDIO
TITLE "Streets Of Berlin"
PERFORMER "Wild Dogs"
INDEX 01 21:59:02
TRACK 07 AUDIO
TITLE "Spellshock"
PERFORMER "Wild Dogs"
INDEX 01 27:10:25
TRACK 08 AUDIO
TITLE "Reign Of Terror"
PERFORMER "Wild Dogs"
INDEX 01 30:55:05
TRACK 09 AUDIO
TITLE "We, Rule The Night"
PERFORMER "Wild Dogs"
INDEX 01 36:44:16
TRACK 10 AUDIO
TITLE "Madhouse"
PERFORMER "Wild Dogs"
INDEX 01 42:08:55
TRACK 11 AUDIO
TITLE "Livin' On The Bad Side"
PERFORMER "Wild Dogs"
INDEX 01 47:19:10
TRACK 12 AUDIO
TITLE "Metal Free America"
PERFORMER "Wild Dogs"
INDEX 01 51:57:11
TRACK 13 AUDIO
TITLE "Man On Fire"
PERFORMER "Wild Dogs"
INDEX 01 57:58:09
TRACK 14 AUDIO
TITLE "Thanx For The Ride"
PERFORMER "Wild Dogs"
INDEX 01 62:38:07
TRACK 15 AUDIO
TITLE "Dead To The World"
PERFORMER "Wild Dogs"
INDEX 01 66:27:13
TRACK 16 AUDIO
TITLE "Screaming The Night Away"
PERFORMER "Wild Dogs"
INDEX 01 70:26:68


Image Image

_________________


Top
 Profile E-mail  
 
 
PostPosted: 09 Oct 2018 
Хиппей (support team)
User avatar
Joined: 30 Jul 2007
Posts: 108837
Lоcаtion: Киев (Kyiv, UA)
Age: 45
Name: Andrey
Забираю альбом в личные топы.
Нравится :meloman:

8/10

_________________


Top
 Profile E-mail  
 
 
PostPosted: 09 Oct 2018 
спирт 100%
User avatar
Joined: 22 Sep 2008
Posts: 4323
Age: 47
Name: Саня
:true: :thanx:


Top
 Profile  
 
 
PostPosted: 09 Oct 2018 
Рарник и трушник
User avatar
Joined: 25 Dec 2009
Posts: 8477
Lоcаtion: Москва
Age: 53
Name: Виталий
:thanx: Шикарный альбумище :lob:


Top
 Profile  
 
Display posts from previous:  Sort by  
Post new topic Reply to topic  [ 16 posts ] 

All times are UTC + 3 hours


Who is online

Users browsing this forum: No registered users and 2 guests


You cannot post new topics in this forum
You cannot reply to topics in this forum
You cannot edit your posts in this forum
You cannot delete your posts in this forum
You cannot post attachments in this forum

Search for:
Яндекс.Метрика
Powered by phpBB © 2000, 2002, 2005, 2007 phpBB Group