\m/ 80's metal \m/

Информационно-аналитический форум "80 см пыли" (In Search We Trust) "У нас никто никуда не спешит"
Железнодорожная биржа - RailAgent
It is currently 11 Dec 2017

All times are UTC + 3 hours

Spoiler
Chat - temporary registration for foreign users (please leave your application here)







Post new topic Reply to topic  [ 15 posts ] 
Author Message
 
PostPosted: 20 Jul 2011 
Труъ
Joined: 01 Jan 2010
Posts: 118
Lоcаtion: MetaLWarrioR
Name: Сергей
Victory - Liveline (1993)
Image
CD1
01.Intro
02.Take The Pace
03.No Way Tonight
04.Don't Tell No Lies
05.Rock'n'Roll Kids Forever
06.Standing Like A Rock
07.God Of Sound
08.Temples Of Gold
09.Love Is Tuff
10.Never Satisfied
11.Come Together (The Beatles cover)
12.On The Loose
13.Tribute To Ying And Yang
CD2
01.Power Strikes The Earth
02.Sex'n'Drums'n'Rock'n'Roll
03.Rock-o-Matic
04.Backseat Rider
05.Rock The Neighbours
06.More And More
07.Check's In The Mail
08.No Way Tonight.... Good Night


Last edited by MetaLWarrioR on 20 Dec 2011, edited 1 time in total.

Top
 Profile E-mail  
 
 
PostPosted: 19 Dec 2011 
Rara avis
User avatar
Joined: 27 Jan 2009
Posts: 3997
Name: .
Victory - Liveline (flac)

CD1 - 349.79 MB - http://www.multiupload.com/M9NZKZ6RRF
CD2 - 287.04 MB - http://www.multiupload.com/EW8G7X5NG1

сканы будут чуть позже


log (CD1)
Отчёт EAC об извлечении, выполненном 29. октября 2002, 0:14 для диска:
Unknown Artist / Unknown Title

Дисковод: _NEC DVD_RW ND-3520A Adapter: 1 ID: 0
Режим чтения: Достоверный (C2: нет, Точный поток: да, Отключение кэша: да)
Коррекция смещения при чтении: 48
Способность читать области Lead-in и Lead-out : Нет

Выходной формат: Внутренние WAV-операции
44.100 Гц; 16 бит; стерео

Другие параметры:
Заполнение пропущенных сэмплов тишиной : Да
Удаление блоков с тишиной в начале и конце : Нет
Установленный внешний ASPI-интерфейс


Характеристики диапазона извлечения и сообщения об ошибках
Выбранный диапазон
Имя файла D:\Unknown Artist - Unknown Title.wav

Пиковый уровень 100.0 %
Качество диапазона 99.9 %
CRC 9F5A8F53
Копирование... OK

Ошибок не произошло

Конец отчёта


cue (CD1)
REM DISCID BC0BD60D
REM COMMENT "ExactAudioCopy v0.95b4"
PERFORMER "Unknown Artist"
TITLE "Unknown Title"
FILE "Unknown Artist - Unknown Title.wav" WAVE
TRACK 01 AUDIO
TITLE "Track01"
PERFORMER "Unknown Artist"
INDEX 00 00:00:00
INDEX 01 00:00:30
TRACK 02 AUDIO
TITLE "Track02"
PERFORMER "Unknown Artist"
INDEX 01 00:27:38
TRACK 03 AUDIO
TITLE "Track03"
PERFORMER "Unknown Artist"
INDEX 01 04:50:36
TRACK 04 AUDIO
TITLE "Track04"
PERFORMER "Unknown Artist"
INDEX 01 08:41:49
TRACK 05 AUDIO
TITLE "Track05"
PERFORMER "Unknown Artist"
INDEX 01 13:35:49
TRACK 06 AUDIO
TITLE "Track06"
PERFORMER "Unknown Artist"
INDEX 01 17:49:05
TRACK 07 AUDIO
TITLE "Track07"
PERFORMER "Unknown Artist"
INDEX 01 21:29:60
TRACK 08 AUDIO
TITLE "Track08"
PERFORMER "Unknown Artist"
INDEX 01 27:04:46
TRACK 09 AUDIO
TITLE "Track09"
PERFORMER "Unknown Artist"
INDEX 01 31:07:51
TRACK 10 AUDIO
TITLE "Track10"
PERFORMER "Unknown Artist"
INDEX 01 36:03:02
TRACK 11 AUDIO
TITLE "Track11"
PERFORMER "Unknown Artist"
INDEX 01 39:22:49
TRACK 12 AUDIO
TITLE "Track12"
PERFORMER "Unknown Artist"
INDEX 01 42:46:19
TRACK 13 AUDIO
TITLE "Track13"
PERFORMER "Unknown Artist"
INDEX 01 47:47:23


log (CD2)
Отчёт EAC об извлечении, выполненном 29. октября 2002, 0:38 для диска:
Unknown Artist / Unknown Title

Дисковод: _NEC DVD_RW ND-3520A Adapter: 1 ID: 0
Режим чтения: Достоверный (C2: нет, Точный поток: да, Отключение кэша: да)
Коррекция смещения при чтении: 48
Способность читать области Lead-in и Lead-out : Нет

Выходной формат: Внутренние WAV-операции
44.100 Гц; 16 бит; стерео

Другие параметры:
Заполнение пропущенных сэмплов тишиной : Да
Удаление блоков с тишиной в начале и конце : Нет
Установленный внешний ASPI-интерфейс


Характеристики диапазона извлечения и сообщения об ошибках
Выбранный диапазон
Имя файла H:\Unknown Artist - Unknown Title.wav

Пиковый уровень 100.0 %
Качество диапазона 99.9 %
CRC 2D7AE755
Копирование... OK

Ошибок не произошло

Конец отчёта


cue (CD2)
REM DISCID 5809AB08
REM COMMENT "ExactAudioCopy v0.95b4"
PERFORMER "Unknown Artist"
TITLE "Unknown Title"
FILE "Unknown Artist - Unknown Title.wav" WAVE
TRACK 01 AUDIO
TITLE "Track01"
PERFORMER "Unknown Artist"
INDEX 00 00:00:00
INDEX 01 00:00:30
TRACK 02 AUDIO
TITLE "Track02"
PERFORMER "Unknown Artist"
INDEX 01 05:23:49
TRACK 03 AUDIO
TITLE "Track03"
PERFORMER "Unknown Artist"
INDEX 01 12:00:33
TRACK 04 AUDIO
TITLE "Track04"
PERFORMER "Unknown Artist"
INDEX 01 15:54:46
TRACK 05 AUDIO
TITLE "Track05"
PERFORMER "Unknown Artist"
INDEX 01 23:20:36
TRACK 06 AUDIO
TITLE "Track06"
PERFORMER "Unknown Artist"
INDEX 01 26:59:13
TRACK 07 AUDIO
TITLE "Track07"
PERFORMER "Unknown Artist"
INDEX 01 30:53:28
TRACK 08 AUDIO
TITLE "Track08"
PERFORMER "Unknown Artist"
INDEX 01 35:49:42


spectrum
Attachment:
spectrum.jpg
spectrum.jpg [ 358.92 KiB | Viewed 96 times ]


Top
 Profile E-mail  
 
 
PostPosted: 19 Dec 2011 
Труъ
Joined: 01 Jan 2010
Posts: 118
Lоcаtion: MetaLWarrioR
Name: Сергей
Поздравляю с покупкой!


Top
 Profile E-mail  
 
 
PostPosted: 20 Dec 2011 
Хиппей (support team)
User avatar
Joined: 30 Jul 2007
Posts: 96901
Lоcаtion: Киев (Kyiv, UA)
Age: 44
Name: Andrey
Даша, спасибо! :thanx:



Серега, залей, плиз, картинку нормально в первый пост.

_________________


Top
 Profile E-mail  
 
 
PostPosted: 20 Dec 2011 
Персональный статус
User avatar
Joined: 22 Oct 2011
Posts: 352
Lоcаtion: Moscow
Age: 59
Name: Серёжа
Большое спасибо!! :thanx:


Top
 Profile E-mail  
 
 
PostPosted: 20 Dec 2011 
Труъ
Joined: 01 Jan 2010
Posts: 118
Lоcаtion: MetaLWarrioR
Name: Сергей
Scatterbrain wrote:
Серега, залей, плиз, картинку нормально в первый пост.

А что ни так?!


Top
 Profile E-mail  
 
 
PostPosted: 20 Dec 2011 
Хиппей (support team)
User avatar
Joined: 30 Jul 2007
Posts: 96901
Lоcаtion: Киев (Kyiv, UA)
Age: 44
Name: Andrey
MetaLWarrioR wrote:
Scatterbrain wrote:
Серега, залей, плиз, картинку нормально в первый пост.

А что ни так?!

Attachment:
vsyo_otlichno.jpg
vsyo_otlichno.jpg [ 56.12 KiB | Viewed 1316 times ]

_________________


Top
 Profile E-mail  
 
 
PostPosted: 20 Dec 2011 
Труъ
Joined: 01 Jan 2010
Posts: 118
Lоcаtion: MetaLWarrioR
Name: Сергей
Опа! На тот момент, когда я писал: "А что ни так?!", обложка была!


Top
 Profile E-mail  
 
 
PostPosted: 20 Dec 2011 
Rara avis
User avatar
Joined: 27 Jan 2009
Posts: 3997
Name: .
сканы лить на форум или ссыкой?
там около 10 штук


Top
 Profile E-mail  
 
 
PostPosted: 21 Dec 2011 
Хиппей (support team)
User avatar
Joined: 30 Jul 2007
Posts: 96901
Lоcаtion: Киев (Kyiv, UA)
Age: 44
Name: Andrey
Даш, можно прямо на форум :dance:
Или, как тебе удобно. Я всё равно завтра скачаю и перелью лося вместе со сканами в одном архиве.

mirror: MultiUp l Narod

_________________


Top
 Profile E-mail  
 
 
PostPosted: 24 Dec 2011 
Rara avis
User avatar
Joined: 27 Jan 2009
Posts: 3997
Name: .
Красиво сделал, Андрей! :thanx:
Вот ещё и сканы
14.37 MB - http://www.multiupload.com/EKFKKKMEMZ


Top
 Profile E-mail  
 
 
PostPosted: 24 Dec 2011 
Хиппей (support team)
User avatar
Joined: 30 Jul 2007
Posts: 96901
Lоcаtion: Киев (Kyiv, UA)
Age: 44
Name: Andrey
Даша, спасибо :thanx:

Позже подпихну сканы в архивы :crazy:

_________________


Top
 Profile E-mail  
 
 
PostPosted: 24 Dec 2011 
спирт 100%
User avatar
Joined: 22 Sep 2008
Posts: 4130
Age: 46
Name: Саня
Даша,Спасибо! :true: :thanx:


Top
 Profile  
 
 
PostPosted: 25 Dec 2011 
Хиппей (support team)
User avatar
Joined: 30 Jul 2007
Posts: 96901
Lоcаtion: Киев (Kyiv, UA)
Age: 44
Name: Andrey
Dare-Devilina wrote:
Сообщения: 999

Ну, за девяточки! :drynk:

Ссылки чуть выше обновлены - добавлены сканы.

_________________


Top
 Profile E-mail  
 
 
PostPosted: 16 Feb 2012 
Rara avis
User avatar
Joined: 27 Jan 2009
Posts: 3997
Name: .
А вот есть такой японец (но не у меня). Облоги разные
http://www.ebay.com/itm/Victory-Livelin ... 43ac89a999


Top
 Profile E-mail  
 
Display posts from previous:  Sort by  
Post new topic Reply to topic  [ 15 posts ] 

All times are UTC + 3 hours


Who is online

Users browsing this forum: Yandex [Bot] and 3 guests


You cannot post new topics in this forum
You cannot reply to topics in this forum
You cannot edit your posts in this forum
You cannot delete your posts in this forum
You cannot post attachments in this forum

Search for:
Яндекс.Метрика
cron
Powered by phpBB © 2000, 2002, 2005, 2007 phpBB Group