\m/ 80's metal \m/

Информационно-аналитический форум "80 см пыли" (In Search We Trust) "У нас никто никуда не спешит"
Железнодорожная биржа - RailAgent
It is currently 19 Aug 2017

All times are UTC + 3 hours

Spoiler
Chat - temporary registration for foreign users (please leave your application here)







Post new topic Reply to topic  [ 11 posts ] 
Author Message
 
PostPosted: 23 Sep 2010 
ыыыы
User avatar
Joined: 17 May 2009
Posts: 952
Lоcаtion: Пушкино, МО
Age: 38
Name: Дмитрий
Image


Жанр: Hard Rock
Происхождение исполнителя: США
Год издания: 1986
Год издания данного носителя: 1986
Страна-производитель носителя: Япония
Аудио кодек: FLAC
Тип рипа: image+.cue
Битрейт аудио: lossless
Продолжительность: 43:18
Рип: Собственный
Лейбл: WARNER-PIONEER
Каталоговый номер: 32XD-435
Матрица: 32XD-435 11A2 +++++ (SONY)

Треклист:
1. Good Enough 04:05
2. Why Can't This Be Love 03:48
3. Get Up 04:37
4. Dreams 04:54
5. Summer Nights 05:06
6. Best of Both Worlds 04:49
7. Love Walks In 05:11
8. "5150" 05:44
9. Inside 05:04


"Куй"
REM GENRE "Hard Rock"
REM DATE 1986
REM DISCID 700A2609
REM COMMENT "ExactAudioCopy v0.99pb5"
PERFORMER "Van Halen"
TITLE "5150 [32XD-435]"
FILE "Van Halen - 5150 [32XD-435].flac" WAVE
TRACK 01 AUDIO
TITLE "Good Enough"
PERFORMER "Van Halen"
INDEX 01 00:00:00
TRACK 02 AUDIO
TITLE "Why Can't This Be Love"
PERFORMER "Van Halen"
INDEX 00 04:04:25
INDEX 01 04:04:67
TRACK 03 AUDIO
TITLE "Get Up"
PERFORMER "Van Halen"
INDEX 01 07:52:67
TRACK 04 AUDIO
TITLE "Dreams"
PERFORMER "Van Halen"
INDEX 01 12:29:70
TRACK 05 AUDIO
TITLE "Summer Nights"
PERFORMER "Van Halen"
INDEX 01 17:24:02
TRACK 06 AUDIO
TITLE "Best Of Both Worlds"
PERFORMER "Van Halen"
INDEX 01 22:30:20
TRACK 07 AUDIO
TITLE "Love Walks In"
PERFORMER "Van Halen"
INDEX 01 27:19:25
TRACK 08 AUDIO
TITLE "'5150'"
PERFORMER "Van Halen"
INDEX 01 32:30:22
TRACK 09 AUDIO
TITLE "Inside"
PERFORMER "Van Halen"
INDEX 00 38:13:70
INDEX 01 38:14:12


"Лог"
Exact Audio Copy V0.99 prebeta 5 from 4. May 2009

Отчёт EAC об извлечении, выполненном 23. сентября 2010, 21:02

Van Halen / 5150 [32XD-435]

Дисковод: MATSHITADVD-RAM UJ-850S Adapter: 0 ID: 0

Режим чтения : Достоверность
Использование точного потока : Да
Отключение кэша аудио : Да
Использование указателей C2 : Нет

Коррекция смещения при чтении : 102
Способность читать области Lead-in и Lead-out : Нет
Заполнение пропущенных сэмплов тишиной : Да
Удаление блоков с тишиной в начале и конце : Нет
При вычислениях CRC использовались нулевые сэмплы : Да
Интерфейс : Установленный внешний ASPI-интерфейс

Выходной формат : Пользовательский кодировщик
Выбранный битрейт : 128 kBit/s
Качество : Высокий
Добавление ID3-тэга : Нет
Утилита сжатия : C:\Program Files\Exact Audio Copy\Flac\flac.exe
Дополнительные параметры : -6 -V -T "artist=%a" -T "title=%t" -T "album=%g" -T "date=%y" -T "tracknumber=%n" -T "genre=%m" -T "comment=EAC 0.99beta5 / FLAC 1.1.0 q6" %s


TOC извлечённого CD

Трек | Старт | Длительность | Начальный сектор | Конечный сектор
---------------------------------------------------------------------
1 | 0:00.00 | 4:04.67 | 0 | 18366
2 | 4:04.67 | 3:48.00 | 18367 | 35466
3 | 7:52.67 | 4:37.03 | 35467 | 56244
4 | 12:29.70 | 4:54.07 | 56245 | 78301
5 | 17:24.02 | 5:06.18 | 78302 | 101269
6 | 22:30.20 | 4:49.05 | 101270 | 122949
7 | 27:19.25 | 5:10.72 | 122950 | 146271
8 | 32:30.22 | 5:43.65 | 146272 | 172061
9 | 38:14.12 | 5:03.63 | 172062 | 194849


Характеристики диапазона извлечения и сообщения об ошибках

Выбранный диапазон

Имя файла Y:\Музыка\Van Halen\1986 5150\Van Halen - 5150 [32XD-435].wav

Пиковый уровень 93.2 %
Качество диапазона 100.0 %
CRC копии 3E4169D9
Копирование... OK

Ошибок не произошло


AccurateRip: сводка

Трек 1 точное извлечение (доверие 2) [97ADFB86]
Трек 2 точное извлечение (доверие 2) [F3F5E743]
Трек 3 точное извлечение (доверие 2) [32CAF77A]
Трек 4 точное извлечение (доверие 2) [D46345FC]
Трек 5 точное извлечение (доверие 2) [90EB7C9A]
Трек 6 точное извлечение (доверие 2) [60A15624]
Трек 7 точное извлечение (доверие 2) [FBA62BFC]
Трек 8 точное извлечение (доверие 2) [B403C39D]
Трек 9 точное извлечение (доверие 2) [2F99A538]

Все треки извлечены точно

Конец отчёта


Состав:
Sammy Hagar: Lead vocals, rhythm guitar
Eddie Van Halen: Lead guitar, acoustic guitar, keyboards, background vocals
Michael Anthony: Bass, background vocals
Alex Van Halen: Drums, percussion

32XD-435

_________________
Витасу до Даймонда как Алсу до Руссоса | При переразмещении - спрашивать разрешение!!


Top
 Profile  
 
 
PostPosted: 23 Sep 2010 
Труъ
User avatar
Joined: 14 Jul 2010
Posts: 104
Lоcаtion: Украина, Донецк
Age: 32
Name: Санёк
Спасибо, никогда не доводилось слышать этот опус. Послушаем-с.

_________________
Rock 'N' Roll is the only thing that keeps me from breaking apart (c)


Top
 Profile E-mail  
 
 
PostPosted: 23 Sep 2010 
Пионэръ
User avatar
Joined: 02 Jul 2010
Posts: 45
Lоcаtion: Сочи
Age: 45
Name: Борис
Спасибо :thanx: :thanx:
Заслушаем :meloman:


Top
 Profile E-mail  
 
 
PostPosted: 23 Sep 2010 
ыыыы
User avatar
Joined: 17 May 2009
Posts: 952
Lоcаtion: Пушкино, МО
Age: 38
Name: Дмитрий
да что там слушать- Ваня Хален он и в Африке))

_________________
Витасу до Даймонда как Алсу до Руссоса | При переразмещении - спрашивать разрешение!!


Top
 Profile  
 
 
PostPosted: 23 Sep 2010 
Персональный статус
Joined: 14 May 2010
Posts: 236
Age: 35
Name: Денис
... Ваня Хален :true:


Top
 Profile  
 
 
PostPosted: 24 Sep 2010 
Труъ
User avatar
Joined: 14 Jul 2010
Posts: 104
Lоcаtion: Украина, Донецк
Age: 32
Name: Санёк
Альбом просто чумовой!!! Зацепил с первого раза, с пол-оборота. Такого давно не было, удивляюсь, что раньше никогда не слышал этого альбома. Теперь он наверное долго не исчезнет из моего плеера. Why can't this be love, Dreams и Love walks in - настоящая классика! :true:

_________________
Rock 'N' Roll is the only thing that keeps me from breaking apart (c)


Top
 Profile E-mail  
 
 
PostPosted: 24 Sep 2010 
Хиппей (support team)
User avatar
Joined: 30 Jul 2007
Posts: 92255
Lоcаtion: Киев (Kyiv, UA)
Age: 44
Name: Andrey
Ну вы блин это... :fool: это ж едрить, классика, йо-ма-йо :true:


Дим, спасибо! :thanx: Лет 15 не слушал альбом, только три основных хита по приёмнику. А щас как раз пришло время вспомнить босяцкий период жизни :drink: :pray:

_________________


Top
 Profile E-mail  
 
 
PostPosted: 24 Sep 2010 
Труъ
User avatar
Joined: 14 Jul 2010
Posts: 104
Lоcаtion: Украина, Донецк
Age: 32
Name: Санёк
А дядя Сэмми не хуже Ли Рота будет, вокал присутствует :meloman:

_________________
Rock 'N' Roll is the only thing that keeps me from breaking apart (c)


Top
 Profile E-mail  
 
 
PostPosted: 24 Sep 2010 
ыыыы
User avatar
Joined: 17 May 2009
Posts: 952
Lоcаtion: Пушкино, МО
Age: 38
Name: Дмитрий
а 88- тоже не слушали??? :fingal:

_________________
Витасу до Даймонда как Алсу до Руссоса | При переразмещении - спрашивать разрешение!!


Top
 Profile  
 
 
PostPosted: 24 Sep 2010 
Персональный статус
Joined: 14 May 2010
Posts: 236
Age: 35
Name: Денис
88 кажется на рутракере есть


Top
 Profile  
 
 
PostPosted: 24 Sep 2010 
Труъ
User avatar
Joined: 14 Jul 2010
Posts: 104
Lоcаtion: Украина, Донецк
Age: 32
Name: Санёк
88 тяну сейчас с рутрекера, но он еле коптит зараза, скорости нет. Надеюсь тоже будет что надо :true:

_________________
Rock 'N' Roll is the only thing that keeps me from breaking apart (c)


Top
 Profile E-mail  
 
Display posts from previous:  Sort by  
Post new topic Reply to topic  [ 11 posts ] 

All times are UTC + 3 hours


Who is online

Users browsing this forum: No registered users and 1 guest


You cannot post new topics in this forum
You cannot reply to topics in this forum
You cannot edit your posts in this forum
You cannot delete your posts in this forum
You cannot post attachments in this forum

Search for:
Яндекс.Метрика
Powered by phpBB © 2000, 2002, 2005, 2007 phpBB Group