\m/ 80's metal \m/

Информационно-аналитический форум "80 см пыли" (In Search We Trust) "У нас никто никуда не спешит"
Железнодорожная биржа - RailAgent
It is currently 20 Aug 2017

All times are UTC + 3 hours

Spoiler
Chat - temporary registration for foreign users (please leave your application here)







Post new topic Reply to topic  [ 15 posts ] 
Author Message
 
PostPosted: 21 Jul 2010 
ыыыы
User avatar
Joined: 17 May 2009
Posts: 952
Lоcаtion: Пушкино, МО
Age: 38
Name: Дмитрий
Image


Жанр: Hard Rock
Происхождение исполнителя: Германия
Год издания: 1987
Год издания данного носителя: 1987
Страна-производитель носителя: Япония
Аудио кодек: FLAC
Тип рипа: image+.cue
Битрейт аудио: lossless
Продолжительность: 39:03
Рип: Собственный
Лейбл: METRONOME/POLYSTAR
Каталоговый номер: P33X-20005
Матрица: P33X20005 C7B30M (SANYO)

Треклист:
1. One Track Mind 03:12
2. The Bigger They Are (The Harder They Fall) 02:51
3. I'm A Survivor 04:29
4. Never Leave You Again 04:49
5. Tough On Love 03:38
6. Hungry Hearts 04:59
7. You Run Away 03:20
8. Look In The Mirror 03:25
9. Feel The Fire 04:31
10. Hi $ Honey 03:47

"Куй"
REM GENRE "Hard Rock"
REM DATE 1987
REM DISCID 7709260A
REM COMMENT "ExactAudioCopy v0.99pb5"
PERFORMER "Victory"
TITLE "Hungry Hearts [P33X-20005]"
FILE "Victory - Hungry Hearts [P33X-20005].flac" WAVE
TRACK 01 AUDIO
TITLE "One Track Mind"
PERFORMER "Victory"
INDEX 01 00:00:00
TRACK 02 AUDIO
TITLE "The Bigger They Are (The Harder They Fall)"
PERFORMER "Victory"
INDEX 00 03:12:05
INDEX 01 03:13:05
TRACK 03 AUDIO
TITLE "I'm A Survivor"
PERFORMER "Victory"
INDEX 00 06:02:60
INDEX 01 06:04:15
TRACK 04 AUDIO
TITLE "Never Leave You Again"
PERFORMER "Victory"
INDEX 00 10:30:22
INDEX 01 10:33:05
TRACK 05 AUDIO
TITLE "Tough On Love"
PERFORMER "Victory"
INDEX 01 15:22:27
TRACK 06 AUDIO
TITLE "Hungry Hearts"
PERFORMER "Victory"
INDEX 00 18:57:60
INDEX 01 18:59:72
TRACK 07 AUDIO
TITLE "You Run Away"
PERFORMER "Victory"
INDEX 00 23:58:10
INDEX 01 23:59:22
TRACK 08 AUDIO
TITLE "Look In The Mirror"
PERFORMER "Victory"
INDEX 00 27:17:47
INDEX 01 27:18:72
TRACK 09 AUDIO
TITLE "Feel The Fire"
PERFORMER "Victory"
INDEX 01 30:44:25
TRACK 10 AUDIO
TITLE "Hi $ Honey"
PERFORMER "Victory"
INDEX 00 35:14:60
INDEX 01 35:15:62


"Лог"
Exact Audio Copy V0.99 prebeta 5 from 4. May 2009

Отчёт EAC об извлечении, выполненном 21. июля 2010, 9:34

Victory / Hungry Hearts [P33X-20005]

Дисковод: Optiarc DVD RW AD-7200A Adapter: 1 ID: 0

Режим чтения : Достоверность
Использование точного потока : Да
Отключение кэша аудио : Да
Использование указателей C2 : Нет

Коррекция смещения при чтении : 48
Способность читать области Lead-in и Lead-out : Нет
Заполнение пропущенных сэмплов тишиной : Да
Удаление блоков с тишиной в начале и конце : Нет
При вычислениях CRC использовались нулевые сэмплы : Да
Интерфейс : Встроенный Win32-интерфейс для Win NT/2000

Выходной формат : Пользовательский кодировщик
Выбранный битрейт : 128 kBit/s
Качество : Высокий
Добавление ID3-тэга : Нет
Утилита сжатия : C:\Program Files\Exact Audio Copy\Flac\flac.exe
Дополнительные параметры : -8 -V -T "artist=%a" -T "title=%t" -T "album=%g" -T "date=%y" -T "tracknumber=%n" -T "genre=%m" -T "comment=EAC


TOC извлечённого CD

Трек | Старт | Длительность | Начальный сектор | Конечный сектор
---------------------------------------------------------------------
1 | 0:00.00 | 3:13.05 | 0 | 14479
2 | 3:13.05 | 2:51.10 | 14480 | 27314
3 | 6:04.15 | 4:28.65 | 27315 | 47479
4 | 10:33.05 | 4:49.22 | 47480 | 69176
5 | 15:22.27 | 3:37.45 | 69177 | 85496
6 | 18:59.72 | 4:59.25 | 85497 | 107946
7 | 23:59.22 | 3:19.50 | 107947 | 122921
8 | 27:18.72 | 3:25.28 | 122922 | 138324
9 | 30:44.25 | 4:31.37 | 138325 | 158686
10 | 35:15.62 | 3:46.73 | 158687 | 175709


Характеристики диапазона извлечения и сообщения об ошибках

Выбранный диапазон

Имя файла Y:\Музыка\Victory\1987 Hungry Hearts\Victory - Hungry Hearts [P33X-20005].wav

Пиковый уровень 100.0 %
Качество диапазона 100.0 %
CRC копии 1E2EF268
Копирование... OK

Ошибок не произошло


AccurateRip: сводка

Трек 1 нет в базе данных
Трек 2 нет в базе данных
Трек 3 нет в базе данных
Трек 4 нет в базе данных
Трек 5 нет в базе данных
Трек 6 нет в базе данных
Трек 7 нет в базе данных
Трек 8 нет в базе данных
Трек 9 нет в базе данных
Трек 10 нет в базе данных

Ни одного трека нет в базе AccurateRip

Конец отчёта


Состав:
Charlie Huhn: Vocals
Herman Frank: Guitars
Tommy Newton: Guitars
Peter Knorn: Bass
Fritz Randow: Drums

P33X-20005

_________________
Витасу до Даймонда как Алсу до Руссоса | При переразмещении - спрашивать разрешение!!


Top
 Profile  
 
 
PostPosted: 21 Jul 2010 
Хиппей (support team)
User avatar
Joined: 30 Jul 2007
Posts: 92285
Lоcаtion: Киев (Kyiv, UA)
Age: 44
Name: Andrey
Спасибо, Дим! :true:

_________________


Top
 Profile E-mail  
 
 
PostPosted: 21 Jul 2010 
Пионэръ
User avatar
Joined: 02 Jul 2010
Posts: 45
Lоcаtion: Сочи
Age: 45
Name: Борис
Ух ты :crazy:
Спасибо :meloman: :meloman:


Top
 Profile E-mail  
 
 
PostPosted: 23 Jul 2010 
Drinker
User avatar
Joined: 12 Mar 2009
Posts: 568
Age: 46
Name: Распай Железных
:true: присоединяюсь !!!


Top
 Profile  
 
 
PostPosted: 23 Jul 2010 
metallpaparazzy
User avatar
Joined: 20 Dec 2009
Posts: 674
Lоcаtion: Днепропетровск
Age: 42
Name: Геннадий
и я заберу :thanx: :thanx:


Top
 Profile E-mail  
 
 
PostPosted: 26 Jul 2010 
Занудный сыч, сопсна
User avatar
Joined: 20 Aug 2007
Posts: 260
Lоcаtion: Москва
Age: 39
Name: Тимофей
Это весьма и весьма почтенно!!!

_________________
"Если бы Николая Баскова не существовало, его следовало бы слепить из говна, хохломы и оладьев" (с) yasviridov.livejournal.com
***
Don't say it's over till is over
***


Top
 Profile  
 
 
PostPosted: 26 Jul 2010 
ыыыы
User avatar
Joined: 17 May 2009
Posts: 952
Lоcаtion: Пушкино, МО
Age: 38
Name: Дмитрий
Durrell Wayne
Ты вернулся из отпуска!!!! айда пиво пить на Рижаке!!!!!

_________________
Витасу до Даймонда как Алсу до Руссоса | При переразмещении - спрашивать разрешение!!


Top
 Profile  
 
 
PostPosted: 26 Jul 2010 
Занудный сыч, сопсна
User avatar
Joined: 20 Aug 2007
Posts: 260
Lоcаtion: Москва
Age: 39
Name: Тимофей
iezuit
Положительно! Пиво не алкоголь, грех не дёрнуть :true:

_________________
"Если бы Николая Баскова не существовало, его следовало бы слепить из говна, хохломы и оладьев" (с) yasviridov.livejournal.com
***
Don't say it's over till is over
***


Top
 Profile  
 
 
PostPosted: 26 Jul 2010 
Хиппей (support team)
User avatar
Joined: 30 Jul 2007
Posts: 92285
Lоcаtion: Киев (Kyiv, UA)
Age: 44
Name: Andrey
Durrell Wayne wrote:
Пиво не алкоголь, грех не дёрнуть :true:

Тим, линейку обновляй :crazy:

_________________


Top
 Profile E-mail  
 
 
PostPosted: 26 Jul 2010 
ыыыы
User avatar
Joined: 17 May 2009
Posts: 952
Lоcаtion: Пушкино, МО
Age: 38
Name: Дмитрий
Scatterbrain
так это же не алкоголь!! :nunu:

_________________
Витасу до Даймонда как Алсу до Руссоса | При переразмещении - спрашивать разрешение!!


Top
 Profile  
 
 
PostPosted: 26 Jul 2010 
Хиппей (support team)
User avatar
Joined: 30 Jul 2007
Posts: 92285
Lоcаtion: Киев (Kyiv, UA)
Age: 44
Name: Andrey
У Тима написано, что он ваще не пьет :fool:

_________________


Top
 Profile E-mail  
 
 
PostPosted: 26 Jul 2010 
ыыыы
User avatar
Joined: 17 May 2009
Posts: 952
Lоcаtion: Пушкино, МО
Age: 38
Name: Дмитрий
Scatterbrain
ну пить- это же не пиво!!! :dash:

_________________
Витасу до Даймонда как Алсу до Руссоса | При переразмещении - спрашивать разрешение!!


Top
 Profile  
 
 
PostPosted: 26 Jul 2010 
Хиппей (support team)
User avatar
Joined: 30 Jul 2007
Posts: 92285
Lоcаtion: Киев (Kyiv, UA)
Age: 44
Name: Andrey
Дак он то ВАЩЕ не пил ничо 1 месяц и 5 дней!! :dash:

_________________


Top
 Profile E-mail  
 
 
PostPosted: 26 Jul 2010 
ыыыы
User avatar
Joined: 17 May 2009
Posts: 952
Lоcаtion: Пушкино, МО
Age: 38
Name: Дмитрий
коньяк, по приезду с югов...но это не считается :blum:

_________________
Витасу до Даймонда как Алсу до Руссоса | При переразмещении - спрашивать разрешение!!


Top
 Profile  
 
 
PostPosted: 26 Jul 2010 
Занудный сыч, сопсна
User avatar
Joined: 20 Aug 2007
Posts: 260
Lоcаtion: Москва
Age: 39
Name: Тимофей
Хех, пить и выпивать культурно - 2 большие разницы. Кто меня лично знает - sapienti sat тык скызыть)))
Сопсна, мы адово флэймим, господа )))

_________________
"Если бы Николая Баскова не существовало, его следовало бы слепить из говна, хохломы и оладьев" (с) yasviridov.livejournal.com
***
Don't say it's over till is over
***


Top
 Profile  
 
Display posts from previous:  Sort by  
Post new topic Reply to topic  [ 15 posts ] 

All times are UTC + 3 hours


Who is online

Users browsing this forum: No registered users and 1 guest


You cannot post new topics in this forum
You cannot reply to topics in this forum
You cannot edit your posts in this forum
You cannot delete your posts in this forum
You cannot post attachments in this forum

Search for:
Яндекс.Метрика
Powered by phpBB © 2000, 2002, 2005, 2007 phpBB Group