\m/ 80's metal \m/

Информационно-аналитический форум "80 см пыли" (In Search We Trust) "У нас никто никуда не спешит"
Железнодорожная биржа - RailAgent
It is currently 24 Oct 2017

All times are UTC + 3 hours

Spoiler
Chat - temporary registration for foreign users (please leave your application here)







Post new topic Reply to topic  [ 4 posts ] 
Author Message
 
PostPosted: 14 Jul 2010 
ыыыы
User avatar
Joined: 17 May 2009
Posts: 952
Lоcаtion: Пушкино, МО
Age: 39
Name: Дмитрий
Image


Жанр: Hard Rock
Происхождение исполнителя: Голландия
Год издания: 1983
Год издания данного носителя: 1989
Страна-производитель носителя: Япония
Аудио кодек: FLAC
Тип рипа: image+.cue
Битрейт аудио: lossless
Продолжительность: 36:24
Рип: Собственный
Лейбл: ATCO/EAST WEST
Каталоговый номер: 18P2-2768
Матрица: 18P2-2768 1 (SONY)

Треклист:
1. Friday Night 03:38
2. Welcome to the Club 03:30
3. Time Will Tell 03:48
4. Different Worlds 04:32
5. This Is War 04:02
6. I'm on Fire 04:18
7. Heading for a Storm 04:04
8. Rock On 04:05
9. Waiting for the Night 04:28


"Куй"
REM GENRE Rock
REM DATE 1983
REM DISCID 81088809
REM COMMENT "ExactAudioCopy v0.99pb5"
PERFORMER "Vandenberg"
TITLE "Heading For A Storm [18P2-2768]"
FILE "Vandenberg - Heading For A Storm [18P2-2768].flac" WAVE
TRACK 01 AUDIO
TITLE "Friday Night"
PERFORMER "Vandenberg"
INDEX 01 00:00:00
TRACK 02 AUDIO
TITLE "Welcome To The Club"
PERFORMER "Vandenberg"
INDEX 01 03:37:42
TRACK 03 AUDIO
TITLE "Time Will Tell"
PERFORMER "Vandenberg"
INDEX 01 07:07:52
TRACK 04 AUDIO
TITLE "Different Worlds"
PERFORMER "Vandenberg"
INDEX 00 10:53:47
INDEX 01 10:55:57
TRACK 05 AUDIO
TITLE "This Is War"
PERFORMER "Vandenberg"
INDEX 00 15:26:70
INDEX 01 15:27:60
TRACK 06 AUDIO
TITLE "I'm On Fire"
PERFORMER "Vandenberg"
INDEX 00 19:28:20
INDEX 01 19:29:37
TRACK 07 AUDIO
TITLE "Heading For A Storm"
PERFORMER "Vandenberg"
INDEX 00 23:45:47
INDEX 01 23:47:32
TRACK 08 AUDIO
TITLE "Rock On"
PERFORMER "Vandenberg"
INDEX 00 27:49:15
INDEX 01 27:51:17
TRACK 09 AUDIO
TITLE "Waiting For The Night"
PERFORMER "Vandenberg"
INDEX 00 31:52:47
INDEX 01 31:56:30


"Лог"
Exact Audio Copy V0.99 prebeta 5 from 4. May 2009

Отчёт EAC об извлечении, выполненном 14. июля 2010, 20:12

Vandenberg / Heading For A Storm [18P2-2768]

Дисковод: MATSHITADVD-RAM UJ-850S Adapter: 0 ID: 0

Режим чтения : Достоверность
Использование точного потока : Да
Отключение кэша аудио : Да
Использование указателей C2 : Нет

Коррекция смещения при чтении : 102
Способность читать области Lead-in и Lead-out : Нет
Заполнение пропущенных сэмплов тишиной : Да
Удаление блоков с тишиной в начале и конце : Нет
При вычислениях CRC использовались нулевые сэмплы : Да
Интерфейс : Установленный внешний ASPI-интерфейс

Выходной формат : Пользовательский кодировщик
Выбранный битрейт : 128 kBit/s
Качество : Высокий
Добавление ID3-тэга : Нет
Утилита сжатия : C:\Program Files\Exact Audio Copy\Flac\flac.exe
Дополнительные параметры : -6 -V -T "artist=%a" -T "title=%t" -T "album=%g" -T "date=%y" -T "tracknumber=%n" -T "genre=%m" -T "comment=EAC 0.99beta5 / FLAC 1.1.0 q6" %s


TOC извлечённого CD

Трек | Старт | Длительность | Начальный сектор | Конечный сектор
---------------------------------------------------------------------
1 | 0:00.00 | 3:37.42 | 0 | 16316
2 | 3:37.42 | 3:30.10 | 16317 | 32076
3 | 7:07.52 | 3:48.05 | 32077 | 49181
4 | 10:55.57 | 4:32.03 | 49182 | 69584
5 | 15:27.60 | 4:01.52 | 69585 | 87711
6 | 19:29.37 | 4:17.70 | 87712 | 107056
7 | 23:47.32 | 4:03.60 | 107057 | 125341
8 | 27:51.17 | 4:05.13 | 125342 | 143729
9 | 31:56.30 | 4:27.60 | 143730 | 163814


Характеристики диапазона извлечения и сообщения об ошибках

Выбранный диапазон

Имя файла Y:\Музыка\Vandenberg\1983 Heading For A Storm\Vandenberg - Heading For A Storm [18P2-2768].wav

Пиковый уровень 100.0 %
Качество диапазона 100.0 %
CRC копии 96F94419
Копирование... OK

Ошибок не произошло


AccurateRip: сводка

Трек 1 точное извлечение (доверие 7) [B7869CBA]
Трек 2 точное извлечение (доверие 7) [60549FFA]
Трек 3 точное извлечение (доверие 7) [AFF89396]
Трек 4 точное извлечение (доверие 7) [63820AFC]
Трек 5 точное извлечение (доверие 7) [5F5928ED]
Трек 6 точное извлечение (доверие 7) [4A3585EF]
Трек 7 точное извлечение (доверие 7) [88C0A85F]
Трек 8 точное извлечение (доверие 7) [2AF85B09]
Трек 9 точное извлечение (доверие 7) [9629663B]

Все треки извлечены точно

Конец отчёта


Состав:
Bert Heerink: Lead vocals, harmony vocals
Adrian Vandenberg: Guitars, keyboards, harmony vocals, producer, mixing, cover design
Dick Kemper: Bass guitar, bass pedals, harmony vocals
Jos Zoomer: Drums, harmony vocals

18P2-2768

_________________
Витасу до Даймонда как Алсу до Руссоса | При переразмещении - спрашивать разрешение!!


Top
 Profile  
 
 
PostPosted: 14 Jul 2010 
ыыыы
User avatar
Joined: 17 May 2009
Posts: 952
Lоcаtion: Пушкино, МО
Age: 39
Name: Дмитрий
Всё, с Вандербильдом покончено )) остальное- сборник и какое-то новьё, что мне крайне не интересно

_________________
Витасу до Даймонда как Алсу до Руссоса | При переразмещении - спрашивать разрешение!!


Top
 Profile  
 
 
PostPosted: 14 Jul 2010 
Персональный статус
Joined: 14 May 2010
Posts: 236
Age: 36
Name: Денис
Спасибо Дмитрий!
Действительно, у них 3 альбома только. Остальные компиляции (бэстофы).

Этот похуже пошёл.


Last edited by disabled on 15 Jul 2010, edited 1 time in total.

Top
 Profile  
 
 
PostPosted: 14 Jul 2010 
Хиппей (support team)
User avatar
Joined: 30 Jul 2007
Posts: 94467
Lоcаtion: Киев (Kyiv, UA)
Age: 44
Name: Andrey
Кста, компиляшка самая трушная. Хоть я их и не люблю, то там действительно собраны все лчшие вещи Берга :meloman:

_________________


Top
 Profile E-mail  
 
Display posts from previous:  Sort by  
Post new topic Reply to topic  [ 4 posts ] 

All times are UTC + 3 hours


Who is online

Users browsing this forum: No registered users and 2 guests


You cannot post new topics in this forum
You cannot reply to topics in this forum
You cannot edit your posts in this forum
You cannot delete your posts in this forum
You cannot post attachments in this forum

Search for:
Яндекс.Метрика
Powered by phpBB © 2000, 2002, 2005, 2007 phpBB Group