\m/ 80's metal \m/

Информационно-аналитический форум "80 см пыли" (In Search We Trust) "У нас никто никуда не спешит"
Железнодорожная биржа - RailAgent
It is currently 17 Oct 2017

All times are UTC + 3 hours

Spoiler
Chat - temporary registration for foreign users (please leave your application here)







Post new topic Reply to topic  [ 11 posts ] 
Author Message
 
PostPosted: 13 Jul 2010 
ыыыы
User avatar
Joined: 17 May 2009
Posts: 952
Lоcаtion: Пушкино, МО
Age: 39
Name: Дмитрий
Image


Жанр: Hard Rock
Происхождение исполнителя: Голландия
Год издания: 1982
Год издания данного носителя: 1989
Страна-производитель носителя: Япония
Аудио кодек: FLAC
Тип рипа: image+.cue
Битрейт аудио: lossless
Продолжительность: 37:13
Рип: Собственный
Лейбл: ATCO/EAST WEST
Каталоговый номер: 18P2-2767
Матрица: 18P2-2767 4 (SONY)

Треклист:
1. Your Love Is in Vain 04:15
2. Back on My Feet 03:55
3. Wait 05:12
4. Burning Heart 04:11
5. Ready for You 03:57
6. Too Late 04:12
7. Nothing to Lose 03:24
8. Lost in a City 03:58
9. Out in the Streets 04:07


"Куй"
REM GENRE Rock
REM DATE 1982
REM DISCID 8808B909
REM COMMENT "ExactAudioCopy v0.99pb5"
PERFORMER "Vandenberg"
TITLE "Vandenberg [18P2-2767]"
FILE "Vandenberg - Vandenberg [18P2-2767].flac" WAVE
TRACK 01 AUDIO
TITLE "Your Love Is In Vain"
PERFORMER "Vandenberg"
INDEX 01 00:00:00
TRACK 02 AUDIO
TITLE "Back On My Feet"
PERFORMER "Vandenberg"
INDEX 00 04:15:17
INDEX 01 04:15:47
TRACK 03 AUDIO
TITLE "Wait"
PERFORMER "Vandenberg"
INDEX 01 08:11:40
TRACK 04 AUDIO
TITLE "Burning Heart"
PERFORMER "Vandenberg"
INDEX 00 13:22:67
INDEX 01 13:23:22
TRACK 05 AUDIO
TITLE "Ready For You"
PERFORMER "Vandenberg"
INDEX 00 17:34:15
INDEX 01 17:34:40
TRACK 06 AUDIO
TITLE "Too Late"
PERFORMER "Vandenberg"
INDEX 00 21:31:47
INDEX 01 21:32:00
TRACK 07 AUDIO
TITLE "Nothing To Lose"
PERFORMER "Vandenberg"
INDEX 01 25:44:12
TRACK 08 AUDIO
TITLE "Lost In A City"
PERFORMER "Vandenberg"
INDEX 01 29:07:72
TRACK 09 AUDIO
TITLE "Out In The Streets"
PERFORMER "Vandenberg"
INDEX 00 33:05:27
INDEX 01 33:06:05


"Лог"
Exact Audio Copy V0.99 prebeta 5 from 4. May 2009

Отчёт EAC об извлечении, выполненном 22. января 2010, 0:18

Vandenberg / Vandenberg [18P2-2767]

Дисковод: ASUS DRW-2014S1 Adapter: 1 ID: 0

Режим чтения : Достоверность
Использование точного потока : Да
Отключение кэша аудио : Да
Использование указателей C2 : Нет

Коррекция смещения при чтении : 6
Способность читать области Lead-in и Lead-out : Нет
Заполнение пропущенных сэмплов тишиной : Да
Удаление блоков с тишиной в начале и конце : Нет
При вычислениях CRC использовались нулевые сэмплы : Да
Интерфейс : Установленный внешний ASPI-интерфейс

Выходной формат : Пользовательский кодировщик
Выбранный битрейт : 128 kBit/s
Качество : Высокий
Добавление ID3-тэга : Нет
Утилита сжатия : C:\Program Files\Exact Audio Copy\Flac\flac.exe
Дополнительные параметры : -6 -V -T "artist=%a" -T "title=%t" -T "album=%g" -T "date=%y" -T "tracknumber=%n" -T "genre=%m" -T "comment=EAC 0.99beta5 / FLAC 1.1.0 q6" %s


TOC извлечённого CD

Трек | Старт | Длительность | Начальный сектор | Конечный сектор
---------------------------------------------------------------------
1 | 0:00.00 | 4:15.47 | 0 | 19171
2 | 4:15.47 | 3:55.68 | 19172 | 36864
3 | 8:11.40 | 5:11.57 | 36865 | 60246
4 | 13:23.22 | 4:11.18 | 60247 | 79089
5 | 17:34.40 | 3:57.35 | 79090 | 96899
6 | 21:32.00 | 4:12.12 | 96900 | 115811
7 | 25:44.12 | 3:23.60 | 115812 | 131096
8 | 29:07.72 | 3:58.08 | 131097 | 148954
9 | 33:06.05 | 4:07.05 | 148955 | 167484


Характеристики диапазона извлечения и сообщения об ошибках

Выбранный диапазон

Имя файла Y:\Музыка\Vandenberg\1982 Vandenberg\Vandenberg - Vandenberg [18P2-2767].wav

Пиковый уровень 100.0 %
Качество диапазона 99.9 %
CRC копии E1148FC5
Копирование... OK

Ошибок не произошло


AccurateRip: сводка

Трек 1 точность не определена (достоверность 3) [B5D240B4], AccurateRip вернул [13F255DE]
Трек 2 точность не определена (достоверность 3) [267EF227], AccurateRip вернул [F18D8A6F]
Трек 3 точность не определена (достоверность 3) [7CFB9B2A], AccurateRip вернул [12407047]
Трек 4 точность не определена (достоверность 3) [1100F6BF], AccurateRip вернул [B99C5B92]
Трек 5 точность не определена (достоверность 3) [18DD3A21], AccurateRip вернул [47F8377D]
Трек 6 точность не определена (достоверность 3) [D8AAE42B], AccurateRip вернул [F67EC6EE]
Трек 7 точность не определена (достоверность 3) [BD54C4E9], AccurateRip вернул [5C18626B]
Трек 8 точность не определена (достоверность 3) [01A74D05], AccurateRip вернул [AB39AED2]
Трек 9 точность не определена (достоверность 3) [9550412A], AccurateRip вернул [59CDB822]

Ни один трек не прошёл проверки на точность
В вашей базе может быть иной вариант штамповки диска

Конец отчёта


Состав:
Bert Heerink: Lead vocals
Adrian Vandenberg: Guitar, keyboards and backing vocals
Dick Kemper: Bass and background vocals
Jos Zoomer: Drums and background vocals

18P2-2767

_________________
Витасу до Даймонда как Алсу до Руссоса | При переразмещении - спрашивать разрешение!!


Top
 Profile  
 
 
PostPosted: 13 Jul 2010 
Персональный статус
Joined: 14 May 2010
Posts: 236
Age: 36
Name: Денис
Спасибо!

Burning Heart - вот песня которая нужна в это время суток.

Альбом хороший, во всяком случае по первому прогону. :meloman: Может мне кажется, но местами слышу позднюю Радугу, которая с Тёрнером (например Nothing To Lose). Хотя в ней же есть немного и от 79 радуги и Боннетом. А может просто уже крыша едет. :starz:


Top
 Profile  
 
 
PostPosted: 13 Jul 2010 
ыыыы
User avatar
Joined: 17 May 2009
Posts: 952
Lоcаtion: Пушкино, МО
Age: 39
Name: Дмитрий
а я как-то и не фанат. Единственное- таки прочитал, что вокалист в Picture пел. А вот в каком году- вики молчит :fingal:
Мэд Макс уже растамаживается в Москве! :dance:

_________________
Витасу до Даймонда как Алсу до Руссоса | При переразмещении - спрашивать разрешение!!


Top
 Profile  
 
 
PostPosted: 13 Jul 2010 
Персональный статус
Joined: 14 May 2010
Posts: 236
Age: 36
Name: Денис
есть там в дебрях (см. 1986-1987)

iezuit wrote:
Мэд Макс уже растамаживается в Москве!
:dance:


Top
 Profile  
 
 
PostPosted: 14 Jul 2010 
Почётный металлург
User avatar
Joined: 15 Sep 2007
Posts: 4356
Lоcаtion: Хабаровск
Age: 57
Name: чуть выше
Это лучший их альбом

_________________
Коль будешь людей ты ослами честить,
тебе человеком меж них не прослыть!
(Саади, персидский поэт, 13в.)


Top
 Profile  
 
 
PostPosted: 14 Jul 2010 
ыыыы
User avatar
Joined: 17 May 2009
Posts: 952
Lоcаtion: Пушкино, МО
Age: 39
Name: Дмитрий
disabled
в 87 короче..а чего-то казалось, что и в 83 тоже :fingal:

_________________
Витасу до Даймонда как Алсу до Руссоса | При переразмещении - спрашивать разрешение!!


Top
 Profile  
 
 
PostPosted: 15 Jul 2010 
Труъ
User avatar
Joined: 14 Jul 2010
Posts: 104
Lоcаtion: Украина, Донецк
Age: 32
Name: Санёк
Приятный такой хард, голландцев правда редко встретишь на рок-горизонте.

_________________
Rock 'N' Roll is the only thing that keeps me from breaking apart (c)


Top
 Profile E-mail  
 
 
PostPosted: 15 Jul 2010 
ыыыы
User avatar
Joined: 17 May 2009
Posts: 952
Lоcаtion: Пушкино, МО
Age: 39
Name: Дмитрий
почему же- Picture, Helloise, Van Halen ))

_________________
Витасу до Даймонда как Алсу до Руссоса | При переразмещении - спрашивать разрешение!!


Top
 Profile  
 
 
PostPosted: 15 Jul 2010 
Труъ
User avatar
Joined: 14 Jul 2010
Posts: 104
Lоcаtion: Украина, Донецк
Age: 32
Name: Санёк
Picture и Helloise безусловно. Еще в голову приходит Within Temptation. Но Van Halen-то чистые американцы, имя просто такое.

_________________
Rock 'N' Roll is the only thing that keeps me from breaking apart (c)


Top
 Profile E-mail  
 
 
PostPosted: 15 Jul 2010 
Хиппей (support team)
User avatar
Joined: 30 Jul 2007
Posts: 94251
Lоcаtion: Киев (Kyiv, UA)
Age: 44
Name: Andrey
Да валом было и есть групп хороших из Нидерландов. По форуму хотя бы пробегитесь :oops:

_________________


Top
 Profile E-mail  
 
 
PostPosted: 15 Jul 2010 
ыыыы
User avatar
Joined: 17 May 2009
Posts: 952
Lоcаtion: Пушкино, МО
Age: 39
Name: Дмитрий
Van Halen- голландцы этнические

_________________
Витасу до Даймонда как Алсу до Руссоса | При переразмещении - спрашивать разрешение!!


Top
 Profile  
 
Display posts from previous:  Sort by  
Post new topic Reply to topic  [ 11 posts ] 

All times are UTC + 3 hours


Who is online

Users browsing this forum: No registered users and 2 guests


You cannot post new topics in this forum
You cannot reply to topics in this forum
You cannot edit your posts in this forum
You cannot delete your posts in this forum
You cannot post attachments in this forum

Search for:
Яндекс.Метрика
Powered by phpBB © 2000, 2002, 2005, 2007 phpBB Group