\m/ 80's metal \m/

Информационно-аналитический форум "80 см пыли" (In Search We Trust) "У нас никто никуда не спешит"
Железнодорожная биржа - RailAgent
It is currently 11 Dec 2017

All times are UTC + 3 hours

Spoiler
Chat - temporary registration for foreign users (please leave your application here)







Post new topic Reply to topic  [ 11 posts ] 
Author Message
 
PostPosted: 12 Jul 2010 
ыыыы
User avatar
Joined: 17 May 2009
Posts: 952
Lоcаtion: Пушкино, МО
Age: 39
Name: Дмитрий
Image


Жанр: Hard Rock
Происхождение исполнителя: Голландия
Год издания: 1985
Год издания данного носителя: 1989
Страна-производитель носителя: Япония
Аудио кодек: FLAC
Тип рипа: image+.cue
Битрейт аудио: lossless
Продолжительность: 37:28
Рип: Собственный
Лейбл: ATCO/EAST WEST
Каталоговый номер: 18P2-2769
Матрица: 18P2-2769 1 (SONY)

Треклист:
1. All the Way 03:50
2. Pedal to the Metal 04:30
3. Once in a Lifetime 03:41
4. Voodoo 03:21
5. Dressed to Kill 03:36
6. Fighting Against the World 04:16
7. How Long 04:12
8. Prelude Mortale 0:35
9. Alibi 04:22
10. Kamikaze 05:04


"Куй"
REM GENRE "Rhythmic Soul"
REM DATE 1985
REM DISCID 7C08C70A
REM COMMENT "ExactAudioCopy v0.99pb5"
PERFORMER "Vandenberg"
TITLE "Alibi [18P2-2769]"
FILE "Vandenberg - Alibi [18P2-2769].flac" WAVE
TRACK 01 AUDIO
TITLE "All The Way"
PERFORMER "Vandenberg"
INDEX 01 00:00:00
TRACK 02 AUDIO
TITLE "Pedal To The Metal"
PERFORMER "Vandenberg"
INDEX 00 03:48:60
INDEX 01 03:50:10
TRACK 03 AUDIO
TITLE "Once In A Lifetime"
PERFORMER "Vandenberg"
INDEX 00 08:18:62
INDEX 01 08:20:12
TRACK 04 AUDIO
TITLE "Voodoo"
PERFORMER "Vandenberg"
INDEX 00 12:00:12
INDEX 01 12:01:37
TRACK 05 AUDIO
TITLE "Dressed To Kill"
PERFORMER "Vandenberg"
INDEX 00 15:21:52
INDEX 01 15:22:02
TRACK 06 AUDIO
TITLE "Fighting Against The World"
PERFORMER "Vandenberg"
INDEX 00 18:56:67
INDEX 01 18:58:17
TRACK 07 AUDIO
TITLE "How Long"
PERFORMER "Vandenberg"
INDEX 00 23:13:55
INDEX 01 23:14:42
TRACK 08 AUDIO
TITLE "Prelude Mortale"
PERFORMER "Vandenberg"
INDEX 00 27:25:07
INDEX 01 27:26:32
TRACK 09 AUDIO
TITLE "Alibi"
PERFORMER "Vandenberg"
INDEX 01 28:01:22
TRACK 10 AUDIO
TITLE "Kamikaze"
PERFORMER "Vandenberg"
INDEX 00 32:22:22
INDEX 01 32:23:47


"Лог"
Exact Audio Copy V0.99 prebeta 5 from 4. May 2009

Отчёт EAC об извлечении, выполненном 22. января 2010, 0:03

Vandenberg / Alibi [18P2-2769]

Дисковод: ASUS DRW-2014S1 Adapter: 1 ID: 0

Режим чтения : Достоверность
Использование точного потока : Да
Отключение кэша аудио : Да
Использование указателей C2 : Нет

Коррекция смещения при чтении : 6
Способность читать области Lead-in и Lead-out : Нет
Заполнение пропущенных сэмплов тишиной : Да
Удаление блоков с тишиной в начале и конце : Нет
При вычислениях CRC использовались нулевые сэмплы : Да
Интерфейс : Установленный внешний ASPI-интерфейс

Выходной формат : Пользовательский кодировщик
Выбранный битрейт : 128 kBit/s
Качество : Высокий
Добавление ID3-тэга : Нет
Утилита сжатия : C:\Program Files\Exact Audio Copy\Flac\flac.exe
Дополнительные параметры : -6 -V -T "artist=%a" -T "title=%t" -T "album=%g" -T "date=%y" -T "tracknumber=%n" -T "genre=%m" -T "comment=EAC 0.99beta5 / FLAC 1.1.0 q6" %s


TOC извлечённого CD

Трек | Старт | Длительность | Начальный сектор | Конечный сектор
---------------------------------------------------------------------
1 | 0:00.00 | 3:50.10 | 0 | 17259
2 | 3:50.10 | 4:30.02 | 17260 | 37511
3 | 8:20.12 | 3:41.25 | 37512 | 54111
4 | 12:01.37 | 3:20.40 | 54112 | 69151
5 | 15:22.02 | 3:36.15 | 69152 | 85366
6 | 18:58.17 | 4:16.25 | 85367 | 104591
7 | 23:14.42 | 4:11.65 | 104592 | 123481
8 | 27:26.32 | 0:34.65 | 123482 | 126096
9 | 28:01.22 | 4:22.25 | 126097 | 145771
10 | 32:23.47 | 5:04.05 | 145772 | 168576


Характеристики диапазона извлечения и сообщения об ошибках

Выбранный диапазон

Имя файла Y:\Музыка\Vandenberg\1985 Alibi\Vandenberg - Alibi [18P2-2769].wav

Пиковый уровень 100.0 %
Качество диапазона 100.0 %
CRC копии 1E0F2653
Копирование... OK

Ошибок не произошло


AccurateRip: сводка

Трек 1 точное извлечение (доверие 3) [E2CF459C]
Трек 2 точное извлечение (доверие 3) [8CED30CD]
Трек 3 точное извлечение (доверие 3) [3FFDB54C]
Трек 4 точное извлечение (доверие 3) [3046A06D]
Трек 5 точное извлечение (доверие 3) [7833355E]
Трек 6 точное извлечение (доверие 3) [C6B8EA5D]
Трек 7 точное извлечение (доверие 3) [65E17D99]
Трек 8 точное извлечение (доверие 3) [209D2F76]
Трек 9 точное извлечение (доверие 3) [F253EE6C]
Трек 10 точное извлечение (доверие 3) [ECE453C0]

Все треки извлечены точно

Конец отчёта


Состав:
Bert Heerink: Lead vocals, harmony vocals
Adrian Vandenberg: Guitars, keyboards, harmony vocals, cover design
Dick Kemper: Bass guitar, bass pedals, harmony vocals
Jos Zoomer: Drums, harmony vocals

18P2-2769

_________________
Витасу до Даймонда как Алсу до Руссоса | При переразмещении - спрашивать разрешение!!


Top
 Profile  
 
 
PostPosted: 12 Jul 2010 
Персональный статус
Joined: 14 May 2010
Posts: 236
Age: 36
Name: Денис
Ура! А я всё думал, будет или нет. Не знаком с этим. Спасибо, будем восполнять пробел.


Top
 Profile  
 
 
PostPosted: 12 Jul 2010 
ыыыы
User avatar
Joined: 17 May 2009
Posts: 952
Lоcаtion: Пушкино, МО
Age: 39
Name: Дмитрий
не до всего руки доходят.
Вокал чем-то напоминает Picture

_________________
Витасу до Даймонда как Алсу до Руссоса | При переразмещении - спрашивать разрешение!!


Top
 Profile  
 
 
PostPosted: 12 Jul 2010 
Хиппей (support team)
User avatar
Joined: 30 Jul 2007
Posts: 96901
Lоcаtion: Киев (Kyiv, UA)
Age: 44
Name: Andrey
Спасибо, Дим! :true:

А вот такой вопрос - у тебя еще много нерипаных дисков? :fingal:

_________________


Top
 Profile E-mail  
 
 
PostPosted: 12 Jul 2010 
ыыыы
User avatar
Joined: 17 May 2009
Posts: 952
Lоcаtion: Пушкино, МО
Age: 39
Name: Дмитрий
Scatterbrain wrote:
Спасибо, Дим! :true:

А вот такой вопрос - у тебя еще много нерипаных дисков? :fingal:

все давно порипаны, на серваке лежат. Правда одни с аккуратом другие- нет. Их перерипываю

_________________
Витасу до Даймонда как Алсу до Руссоса | При переразмещении - спрашивать разрешение!!


Top
 Profile  
 
 
PostPosted: 12 Jul 2010 
Персональный статус
Joined: 14 May 2010
Posts: 236
Age: 36
Name: Денис
а какой логин и пароль на сервак? :haha: (ключи от сервака, где рипы лежат)

прослушал. весьма неплохо. буду переслушивать ещё и это очень хороший знак для Adrian'а. :meloman:

"How Long" показалась знакомой вещью, или это просто стандартный напев из 80-х.


Last edited by disabled on 12 Jul 2010, edited 4 times in total.

Top
 Profile  
 
 
PostPosted: 12 Jul 2010 
Хиппей (support team)
User avatar
Joined: 30 Jul 2007
Posts: 96901
Lоcаtion: Киев (Kyiv, UA)
Age: 44
Name: Andrey
iezuit wrote:
Правда одни с аккуратом другие- нет. Их перерипываю

Ага, понял, пасибо.

Пароль от сервака не скажем, вы пока адрес сами поищите :nunu:

_________________


Top
 Profile E-mail  
 
 
PostPosted: 13 Jul 2010 
ыыыы
User avatar
Joined: 17 May 2009
Posts: 952
Lоcаtion: Пушкино, МО
Age: 39
Name: Дмитрий
сервер у меня дома стоит, чтобы с разных компов был доступ

_________________
Витасу до Даймонда как Алсу до Руссоса | При переразмещении - спрашивать разрешение!!


Top
 Profile  
 
 
PostPosted: 13 Jul 2010 
парень в очёчкXаX!
User avatar
Joined: 15 Aug 2007
Posts: 2353
Lоcаtion: UK'раина, г. ЛондАн Би-Би-Си
Age: 47
Name: Сергей
iezuit wrote:
сервер у меня дома стоит, чтобы с разных компов был доступ

када на моря, адресочек дома, телефон моб/дом, как поъехать, в какое время дома (не) бываешь???????

заранее благодарен за помощь :gra: :chebur:


Top
 Profile  
 
 
PostPosted: 13 Jul 2010 
ыыыы
User avatar
Joined: 17 May 2009
Posts: 952
Lоcаtion: Пушкино, МО
Age: 39
Name: Дмитрий
:razz: шлите факсы :nunu:

_________________
Витасу до Даймонда как Алсу до Руссоса | При переразмещении - спрашивать разрешение!!


Top
 Profile  
 
 
PostPosted: 13 Jul 2010 
Хиппей (support team)
User avatar
Joined: 30 Jul 2007
Posts: 96901
Lоcаtion: Киев (Kyiv, UA)
Age: 44
Name: Andrey
Image

_________________


Top
 Profile E-mail  
 
Display posts from previous:  Sort by  
Post new topic Reply to topic  [ 11 posts ] 

All times are UTC + 3 hours


Who is online

Users browsing this forum: No registered users and 3 guests


You cannot post new topics in this forum
You cannot reply to topics in this forum
You cannot edit your posts in this forum
You cannot delete your posts in this forum
You cannot post attachments in this forum

Search for:
Яндекс.Метрика
cron
Powered by phpBB © 2000, 2002, 2005, 2007 phpBB Group