\m/ 80's metal \m/

Информационно-аналитический форум "80 см пыли" (In Search We Trust) "У нас никто никуда не спешит"
Железнодорожная биржа - RailAgent
It is currently 17 Aug 2017

All times are UTC + 3 hours

Spoiler
Chat - temporary registration for foreign users (please leave your application here)







Post new topic Reply to topic  [ 9 posts ] 
Author Message
 
PostPosted: 02 Jul 2010 
Old Time Rock`n`Roll
User avatar
Joined: 23 Jun 2008
Posts: 3266
Lоcаtion: г.Ульяновск
Age: 39
Name: Константин
Vardis – 100 M.P.H (1980) - FLAC

Image

Year: 1980
Style: NWOBHM
Country: UK
Format: FLAC (tracks) + log + cue + scans & mp3-320
Size: 325 Mb + 102 Mb

Tracklist
1. Out Of The Way 02:55
2. Move Along 04:07
3. The Lions Share 03:45
4. Situation Negative 03:34
5. Destiny 03:59
6. The Loser 03:54
7. Living Out Of Touch 02:59
8. Let's Go 03:28
9. 100 MPH 07:31
10. Dirty Money 02:31
11. If I Were King 04:12


TPT – 43:02

Line-Up
Steve Zodiac - Guitar, Vocals
Alan Selway - Bass
Gary Pearson – Drums

Chart Position:
UK # 52

Log
Exact Audio Copy V0.99 prebeta 5 from 4. May 2009

EAC extraction logfile from 17. June 2010, 7:20

Vardis / 100 M.P.H.

Used drive : HL-DT-STDVD-RAM GSA-H20N Adapter: 3 ID: 0

Read mode : Secure
Utilize accurate stream : Yes
Defeat audio cache : Yes
Make use of C2 pointers : No

Read offset correction : 102
Overread into Lead-In and Lead-Out : No
Fill up missing offset samples with silence : Yes
Delete leading and trailing silent blocks : No
Null samples used in CRC calculations : Yes
Used interface : Installed external ASPI interface
Gap handling : Appended to previous track

Used output format : Internal WAV Routines
Sample format : 44.100 Hz; 16 Bit; Stereo


TOC of the extracted CD

Track | Start | Length | Start sector | End sector
---------------------------------------------------------
1 | 0:00.00 | 2:55.18 | 0 | 13142
2 | 2:55.18 | 4:06.66 | 13143 | 31658
3 | 7:02.09 | 3:44.64 | 31659 | 48522
4 | 10:46.73 | 3:34.33 | 48523 | 64605
5 | 14:21.31 | 3:58.54 | 64606 | 82509
6 | 18:20.10 | 3:55.01 | 82510 | 100135
7 | 22:15.11 | 2:59.00 | 100136 | 113560
8 | 25:14.11 | 3:28.27 | 113561 | 129187
9 | 28:42.38 | 7:31.41 | 129188 | 163053
10 | 36:14.04 | 2:31.03 | 163054 | 174381
11 | 38:45.07 | 4:17.15 | 174382 | 193671


Track 1

Filename C:\Documents and Settings\Desktop\EAC\Vardis\100 M.P.H\01 - Out Of The Way.wav

Pre-gap length 0:00:02.00

Peak level 99.4 %
Track quality 100.0 %
Test CRC 1459C7DF
Copy CRC 1459C7DF
Track not present in AccurateRip database
Copy OK

Track 2

Filename C:\Documents and Settings\Desktop\EAC\Vardis\100 M.P.H\02 - Move Along.wav

Peak level 99.4 %
Track quality 100.0 %
Test CRC 3429C0BB
Copy CRC 3429C0BB
Track not present in AccurateRip database
Copy OK

Track 3

Filename C:\Documents and Settings\Desktop\EAC\Vardis\100 M.P.H\03 - The Lion's Share.wav

Peak level 99.4 %
Track quality 100.0 %
Test CRC 5B3BDD5C
Copy CRC 5B3BDD5C
Track not present in AccurateRip database
Copy OK

Track 4

Filename C:\Documents and Settings\Desktop\EAC\Vardis\100 M.P.H\04 - Situation Negative.wav

Peak level 99.4 %
Track quality 100.0 %
Test CRC 46B6B9A9
Copy CRC 46B6B9A9
Track not present in AccurateRip database
Copy OK

Track 5

Filename C:\Documents and Settings\Desktop\EAC\Vardis\100 M.P.H\05 - Destiny.wav

Peak level 99.4 %
Track quality 99.9 %
Test CRC 64DDF91F
Copy CRC 64DDF91F
Track not present in AccurateRip database
Copy OK

Track 6

Filename C:\Documents and Settings\Desktop\EAC\Vardis\100 M.P.H\06 - The Loser.wav

Peak level 99.4 %
Track quality 100.0 %
Test CRC A0822F70
Copy CRC A0822F70
Track not present in AccurateRip database
Copy OK

Track 7

Filename C:\Documents and Settings\Desktop\EAC\Vardis\100 M.P.H\07 - Living Out Of Touch.wav

Peak level 99.4 %
Track quality 99.9 %
Test CRC BBDEB079
Copy CRC BBDEB079
Track not present in AccurateRip database
Copy OK

Track 8

Filename C:\Documents and Settings\Desktop\EAC\Vardis\100 M.P.H\08 - Let's Go.wav

Peak level 99.4 %
Track quality 100.0 %
Test CRC 528D759A
Copy CRC 528D759A
Track not present in AccurateRip database
Copy OK

Track 9

Filename C:\Documents and Settings\Desktop\EAC\Vardis\100 M.P.H\09 - 100 M.P.H.wav

Peak level 99.4 %
Track quality 100.0 %
Test CRC 9E5FFD31
Copy CRC 9E5FFD31
Track not present in AccurateRip database
Copy OK

Track 10

Filename C:\Documents and Settings\Desktop\EAC\Vardis\100 M.P.H\10 - Dirty Money.wav

Peak level 99.4 %
Track quality 100.0 %
Test CRC D8ADD932
Copy CRC D8ADD932
Track not present in AccurateRip database
Copy OK

Track 11

Filename C:\Documents and Settings\Desktop\EAC\Vardis\100 M.P.H\11 - If I Were King.wav

Peak level 99.4 %
Track quality 100.0 %
Test CRC 7375540F
Copy CRC 7375540F
Track not present in AccurateRip database
Copy OK


None of the tracks are present in the AccurateRip database

No errors occurred

End of status report


Cue
REM GENRE Rock
REM DATE 2009
REM DISCID 890A160B
REM COMMENT "ExactAudioCopy v0.99pb5"
PERFORMER "Vardis"
TITLE "100 M.P.H."
FILE "01 - Out Of The Way.wav" WAVE
TRACK 01 AUDIO
TITLE "Out Of The Way"
PERFORMER "Vardis"
FLAGS DCP
INDEX 01 00:00:00
FILE "02 - Move Along.wav" WAVE
TRACK 02 AUDIO
TITLE "Move Along"
PERFORMER "Vardis"
FLAGS DCP
INDEX 01 00:00:00
FILE "03 - The Lion's Share.wav" WAVE
TRACK 03 AUDIO
TITLE "The Lion's Share"
PERFORMER "Vardis"
FLAGS DCP
INDEX 01 00:00:00
FILE "04 - Situation Negative.wav" WAVE
TRACK 04 AUDIO
TITLE "Situation Negative"
PERFORMER "Vardis"
FLAGS DCP
INDEX 01 00:00:00
FILE "05 - Destiny.wav" WAVE
TRACK 05 AUDIO
TITLE "Destiny"
PERFORMER "Vardis"
FLAGS DCP
INDEX 01 00:00:00
FILE "06 - The Loser.wav" WAVE
TRACK 06 AUDIO
TITLE "The Loser"
PERFORMER "Vardis"
FLAGS DCP
INDEX 01 00:00:00
FILE "07 - Living Out Of Touch.wav" WAVE
TRACK 07 AUDIO
TITLE "Living Out Of Touch"
PERFORMER "Vardis"
FLAGS DCP
INDEX 01 00:00:00
FILE "08 - Let's Go.wav" WAVE
TRACK 08 AUDIO
TITLE "Let's Go"
PERFORMER "Vardis"
FLAGS DCP
INDEX 01 00:00:00
FILE "09 - 100 M.P.H.wav" WAVE
TRACK 09 AUDIO
TITLE "100 M.P.H"
PERFORMER "Vardis"
FLAGS DCP
INDEX 01 00:00:00
FILE "10 - Dirty Money.wav" WAVE
TRACK 10 AUDIO
TITLE "Dirty Money"
PERFORMER "Vardis"
FLAGS DCP
INDEX 01 00:00:00
FILE "11 - If I Were King.wav" WAVE
TRACK 11 AUDIO
TITLE "If I Were King"
PERFORMER "Vardis"
FLAGS DCP
INDEX 01 00:00:00

FLAC
megaupload-FLAC
narod-FLAC

mp3-320
megaupload-320

Мощный NWOBHM в буги-металлическом ключе, дебютный записанный вживую альбом группы из Уэйкфилда, Западный Йоркшир. Отличная гитарная работа, соло, местами переходящие в импровизацию. Переиздание 2009 г.
За рип спасибо товарищу Boogey maniac.

Image


Top
 Profile  
 
 
PostPosted: 03 Jul 2010 
Почётный металлург
User avatar
Joined: 15 Sep 2007
Posts: 4347
Lоcаtion: Хабаровск
Age: 57
Name: чуть выше
Спасибище за эту группу!
Константин, есть еще? Всю бы её поиметь!

_________________
Коль будешь людей ты ослами честить,
тебе человеком меж них не прослыть!
(Саади, персидский поэт, 13в.)


Top
 Profile  
 
 
PostPosted: 03 Jul 2010 
Old Time Rock`n`Roll
User avatar
Joined: 23 Jun 2008
Posts: 3266
Lоcаtion: г.Ульяновск
Age: 39
Name: Константин
Нет, Сергей, это единственный альбом, который удалось достать.


Top
 Profile  
 
 
PostPosted: 03 Jul 2010 
Почётный металлург
User avatar
Joined: 15 Sep 2007
Posts: 4347
Lоcаtion: Хабаровск
Age: 57
Name: чуть выше
Жаль. Но это вопрос времени.

_________________
Коль будешь людей ты ослами честить,
тебе человеком меж них не прослыть!
(Саади, персидский поэт, 13в.)


Top
 Profile  
 
 
PostPosted: 03 Jul 2010 
Прокъмитолист
User avatar
Joined: 12 Aug 2007
Posts: 6093
Lоcаtion: Санктъ-Петербуркъ
Age: 49
Name: Олекъ
спасибо, Костя! и я возьму, пожалуй :thanx:

_________________
прокъметол - это музыко, от которово есть прок (ы)


Top
 Profile  
 
 
PostPosted: 03 Jul 2010 
Хиппей (support team)
User avatar
Joined: 30 Jul 2007
Posts: 92197
Lоcаtion: Киев (Kyiv, UA)
Age: 44
Name: Andrey
Костя, спасибо, йо! :true:

_________________


Top
 Profile E-mail  
 
 
PostPosted: 03 Jul 2010 
Old Time Rock`n`Roll
User avatar
Joined: 23 Jun 2008
Posts: 3266
Lоcаtion: г.Ульяновск
Age: 39
Name: Константин
spiralarch wrote:
и я возьму, пожалуй :thanx:


Ого, видать с дискографией Hirax уже разобрался )))


Top
 Profile  
 
 
PostPosted: 03 Jul 2010 
Прокъмитолист
User avatar
Joined: 12 Aug 2007
Posts: 6093
Lоcаtion: Санктъ-Петербуркъ
Age: 49
Name: Олекъ
oldrocker wrote:
видать с дискографией Hirax уже разобрался )))

дык а что с ней разбираться - там и так все понятно :pardon:

_________________
прокъметол - это музыко, от которово есть прок (ы)


Top
 Profile  
 
 
PostPosted: 04 Jul 2010 
дядя Миша
User avatar
Joined: 17 Oct 2008
Posts: 2553
Lоcаtion: USSR
Age: 54
Name: Khy
О , знакомая - рок.н.рольная банда, совсем не в стиле грандов NWOBHM - Tygers of p.t, Chariot, Diamond head, Samson.
Такой утяжелённый вариант классического pok-н-рола.


Top
 Profile  
 
Display posts from previous:  Sort by  
Post new topic Reply to topic  [ 9 posts ] 

All times are UTC + 3 hours


Who is online

Users browsing this forum: No registered users and 1 guest


You cannot post new topics in this forum
You cannot reply to topics in this forum
You cannot edit your posts in this forum
You cannot delete your posts in this forum
You cannot post attachments in this forum

Search for:
Яндекс.Метрика
Powered by phpBB © 2000, 2002, 2005, 2007 phpBB Group