\m/ 80's metal \m/

Информационно-аналитический форум "80 см пыли" (In Search We Trust) "У нас никто никуда не спешит"
Железнодорожная биржа - RailAgent
It is currently 13 Dec 2017

All times are UTC + 3 hours

Spoiler
Chat - temporary registration for foreign users (please leave your application here)







Post new topic Reply to topic  [ 12 posts ] 
Author Message
 
PostPosted: 01 Jul 2010 
ыыыы
User avatar
Joined: 17 May 2009
Posts: 952
Lоcаtion: Пушкино, МО
Age: 39
Name: Дмитрий
Image


Жанр: Heavy Metal
Происхождение исполнителя: США
Год издания: 1985
Год издания данного носителя: 1987
Страна-производитель носителя: Япония
Аудио кодек: FLAC
Тип рипа: image+.cue
Битрейт аудио: lossless
Продолжительность: 38:51
Рип: Собственный
Лейбл: SHRAPNEL/SMS
Каталоговый номер: MP32-5116
Матрица: MP32-5116-A2E 11 (JVC)

Треклист:
1. Premonition 01:03
2. Ride (Into the Sun) 03:44
3. Medusa 03:57
4. Soldiers of the Night 04:23
5. Murder 04:02
6. March or Die 04:41
7. Blitz the World 03:37
8. Invader 02:52
9. In Fire 03:22
10. Domestic Bliss 03:42
11. Blistering Winds 03:28

"Куй"
REM GENRE "Heavy Metal"
REM DATE 1985
REM DISCID 83091B0B
REM COMMENT "ExactAudioCopy v0.99pb5"
PERFORMER "Vicious Rumors"
TITLE "Soldiers Of The Night [MP32-5116]"
FILE "Vicious Rumors - Soldiers Of The Night [MP32-5116].flac" WAVE
TRACK 01 AUDIO
TITLE "Premonition"
PERFORMER "Vicious Rumors"
INDEX 00 00:00:00
INDEX 01 00:00:37
TRACK 02 AUDIO
TITLE "Ride (Into The Sun)"
PERFORMER "Vicious Rumors"
INDEX 01 01:03:67
TRACK 03 AUDIO
TITLE "Medusa"
PERFORMER "Vicious Rumors"
INDEX 00 04:47:27
INDEX 01 04:47:50
TRACK 04 AUDIO
TITLE "Soldiers Of The Night"
PERFORMER "Vicious Rumors"
INDEX 00 08:44:09
INDEX 01 08:45:10
TRACK 05 AUDIO
TITLE "Murder"
PERFORMER "Vicious Rumors"
INDEX 00 13:06:64
INDEX 01 13:07:65
TRACK 06 AUDIO
TITLE "March Or Die"
PERFORMER "Vicious Rumors"
INDEX 00 17:07:57
INDEX 01 17:09:30
TRACK 07 AUDIO
TITLE "Blitz The World"
PERFORMER "Vicious Rumors"
INDEX 00 21:48:62
INDEX 01 21:50:35
TRACK 08 AUDIO
TITLE "Invader"
PERFORMER "Vicious Rumors"
INDEX 00 25:26:69
INDEX 01 25:27:65
TRACK 09 AUDIO
TITLE "In Fire"
PERFORMER "Vicious Rumors"
INDEX 00 28:18:54
INDEX 01 28:19:50
TRACK 10 AUDIO
TITLE "Domestic Bliss"
PERFORMER "Vicious Rumors"
INDEX 00 31:40:37
INDEX 01 31:41:52
TRACK 11 AUDIO
TITLE "Blistering Winds"
PERFORMER "Vicious Rumors"
INDEX 00 35:22:37
INDEX 01 35:23:70


"Лог"
Exact Audio Copy V0.99 prebeta 5 from 4. May 2009

EAC extraction logfile from 26. April 2010, 10:22

Vicious Rumors / Soldiers Of The Night [MP32-5116]

Used drive : Optiarc DVD RW AD-7200A Adapter: 0 ID: 0

Read mode : Secure
Utilize accurate stream : Yes
Defeat audio cache : Yes
Make use of C2 pointers : No

Read offset correction : 48
Overread into Lead-In and Lead-Out : No
Fill up missing offset samples with silence : Yes
Delete leading and trailing silent blocks : No
Null samples used in CRC calculations : Yes
Used interface : Native Win32 interface for Win NT & 2000

Used output format : User Defined Encoder
Selected bitrate : 128 kBit/s
Quality : High
Add ID3 tag : No
Command line compressor : C:\Program Files\Exact Audio Copy\Flac\flac.exe
Additional command line options : -8 -V -T "artist=%a" -T "title=%t" -T "album=%g" -T "date=%y" -T "tracknumber=%n" -T "genre=%m" -T "comment=EAC 0.9beta4 / FLAC 1.1.0 q6" %s


TOC of the extracted CD

Track | Start | Length | Start sector | End sector
---------------------------------------------------------
1 | 0:00.37 | 1:03.30 | 37 | 4791
2 | 1:03.67 | 3:43.58 | 4792 | 21574
3 | 4:47.50 | 3:57.35 | 21575 | 39384
4 | 8:45.10 | 4:22.55 | 39385 | 59089
5 | 13:07.65 | 4:01.40 | 59090 | 77204
6 | 17:09.30 | 4:41.05 | 77205 | 98284
7 | 21:50.35 | 3:37.30 | 98285 | 114589
8 | 25:27.65 | 2:51.60 | 114590 | 127474
9 | 28:19.50 | 3:22.02 | 127475 | 142626
10 | 31:41.52 | 3:42.18 | 142627 | 159294
11 | 35:23.70 | 3:28.02 | 159295 | 174896


Range status and errors

Selected range

Filename Y:\Музыка\Vicious Rumors\1985 Soldiers Of The Night\Vicious Rumors - Soldiers Of The Night [MP32-5116].wav

Peak level 100.0 %
Range quality 100.0 %
Copy CRC D5AD7E2B
Copy OK

No errors occurred

End of status report


Состав:
Vocals: Gary St. Pierre
Guitars: Geoff Thorpe
Guitars: Vinnie Moore
Bass: Dave Starr
Drums: Larry Howe

MP32-5116

_________________
Витасу до Даймонда как Алсу до Руссоса | При переразмещении - спрашивать разрешение!!


Last edited by iezuit on 01 Jul 2010, edited 3 times in total.

Top
 Profile  
 
 
PostPosted: 01 Jul 2010 
дядя Миша
User avatar
Joined: 17 Oct 2008
Posts: 2801
Lоcаtion: USSR
Age: 55
Name: Khy
лучший альбом!


Top
 Profile  
 
 
PostPosted: 01 Jul 2010 
ыыыы
User avatar
Joined: 17 May 2009
Posts: 952
Lоcаtion: Пушкино, МО
Age: 39
Name: Дмитрий
ин фаеееееер!!! :true: :true: :true:

_________________
Витасу до Даймонда как Алсу до Руссоса | При переразмещении - спрашивать разрешение!!


Top
 Profile  
 
 
PostPosted: 01 Jul 2010 
Почётный металлург
User avatar
Joined: 15 Sep 2007
Posts: 4357
Lоcаtion: Хабаровск
Age: 57
Name: чуть выше
Спасибо большое! Тоже ндравится эта вещь. :thanx: :true:

_________________
Коль будешь людей ты ослами честить,
тебе человеком меж них не прослыть!
(Саади, персидский поэт, 13в.)


Top
 Profile  
 
 
PostPosted: 01 Jul 2010 
Хиппей (support team)
User avatar
Joined: 30 Jul 2007
Posts: 96993
Lоcаtion: Киев (Kyiv, UA)
Age: 44
Name: Andrey
:true:

_________________


Top
 Profile E-mail  
 
 
PostPosted: 01 Jul 2010 
Прокъмитолист
User avatar
Joined: 12 Aug 2007
Posts: 6252
Lоcаtion: Санктъ-Петербуркъ
Age: 50
Name: Олекъ
долго собирался с мыслями, надо ли перекачивать по-новой Vicious Rumors?.. все же наверно заберу первые 4, по-моему они на ММТ не совсем идеальны были. спасибо, Дим! :thanx: :true: :drink:

_________________
прокъметол - это музыко, от которово есть прок (ы)


Top
 Profile  
 
 
PostPosted: 01 Jul 2010 
ыыыы
User avatar
Joined: 17 May 2009
Posts: 952
Lоcаtion: Пушкино, МО
Age: 39
Name: Дмитрий
spiralarch
Перекачивай!))
Scatterbrain
:meloman: :true:
Sergey
На здоровье! Хабаровчанам-привет!!

_________________
Витасу до Даймонда как Алсу до Руссоса | При переразмещении - спрашивать разрешение!!


Top
 Profile  
 
 
PostPosted: 01 Jul 2010 
А может смените мне статус?..
User avatar
Joined: 24 Dec 2008
Posts: 556
Age: 43
Name: Дмитрий
Спасибо, мне этот альбом тоже больше других нравится. :true:


Top
 Profile  
 
 
PostPosted: 01 Jul 2010 
Хиппей (support team)
User avatar
Joined: 30 Jul 2007
Posts: 96993
Lоcаtion: Киев (Kyiv, UA)
Age: 44
Name: Andrey
Спасибо, Дим! :thanx: *забыл сказать тебе* :oops:

_________________


Top
 Profile E-mail  
 
 
PostPosted: 01 Jul 2010 
А может смените мне статус?..
Joined: 03 Jul 2009
Posts: 704
Lоcаtion: Serbia
Name: Laki
thank you !!!!


Top
 Profile E-mail  
 
 
PostPosted: 02 Jul 2010 
metallpaparazzy
User avatar
Joined: 20 Dec 2009
Posts: 674
Lоcаtion: Днепропетровск
Age: 42
Name: Геннадий
:thanx:
и я возьму такого зверя! :true:
...ну пачиму у тебя сканера нету :dash: :cry:


Top
 Profile E-mail  
 
 
PostPosted: 02 Jul 2010 
ыыыы
User avatar
Joined: 17 May 2009
Posts: 952
Lоcаtion: Пушкино, МО
Age: 39
Name: Дмитрий
и не будет!!!! :crazy:

_________________
Витасу до Даймонда как Алсу до Руссоса | При переразмещении - спрашивать разрешение!!


Top
 Profile  
 
Display posts from previous:  Sort by  
Post new topic Reply to topic  [ 12 posts ] 

All times are UTC + 3 hours


Who is online

Users browsing this forum: Yandex [Bot] and 1 guest


You cannot post new topics in this forum
You cannot reply to topics in this forum
You cannot edit your posts in this forum
You cannot delete your posts in this forum
You cannot post attachments in this forum

Search for:
Яндекс.Метрика
Powered by phpBB © 2000, 2002, 2005, 2007 phpBB Group