\m/ 80's metal \m/

Информационно-аналитический форум "80 см пыли" (In Search We Trust) "У нас никто никуда не спешит"
Железнодорожная биржа - RailAgent
It is currently 17 Aug 2017

All times are UTC + 3 hours

Spoiler
Chat - temporary registration for foreign users (please leave your application here)







Post new topic Reply to topic  [ 8 posts ] 
Author Message
 
PostPosted: 26 Jun 2010 
ыыыы
User avatar
Joined: 17 May 2009
Posts: 952
Lоcаtion: Пушкино, МО
Age: 38
Name: Дмитрий
Vicious Rumors - Digital Dictator 1988 (Japan)

Image
Жанр: Heavy Metal
Происхождение исполнителя: США
Год издания: 1988
Год издания данного носителя: 1988
Страна-производитель носителя: Япония
Аудио кодек: FLAC
Тип рипа: image+.cue
Битрейт аудио: lossless
Продолжительность: 38:57
Рип: Собственный
Лейбл: SHRAPNEL/SMS
Каталоговый номер: MP32-5325
Матрица: MP32-5325-A1E 11 (JVC)

Треклист:
1. Replicant 01:04
2. Digital Dictator 03:16
3. Minute to Kill 03:34
4. Towns on Fire 04:23
5. Lady Took A Chance 06:11
6. Worlds and Machines 05:29
7. The Crest 02:55
8. R.L.H. 04:03
9. Condemned 03:52
10. Out of the Shadows 04:09

"Куй"
REM GENRE "Heavy Metal"
REM DATE 1988
REM DISCID 7709210A
REM COMMENT "ExactAudioCopy v0.99pb5"
CATALOG 0000000000000
PERFORMER "Vicious Rumors"
TITLE "Digital Dictator [MP32-5325]"
FILE "Vicious Rumors - Digital Dictator [MP32-5325].flac" WAVE
TRACK 01 AUDIO
TITLE "Replicant"
PERFORMER "Vicious Rumors"
INDEX 00 00:00:00
INDEX 01 00:00:37
TRACK 02 AUDIO
TITLE "Digital Dictator"
PERFORMER "Vicious Rumors"
INDEX 01 01:04:32
TRACK 03 AUDIO
TITLE "Minute To Kill"
PERFORMER "Vicious Rumors"
INDEX 01 04:20:65
TRACK 04 AUDIO
TITLE "Towns On Fire"
PERFORMER "Vicious Rumors"
INDEX 00 07:53:57
INDEX 01 07:55:12
TRACK 05 AUDIO
TITLE "Lady Took A Chance"
PERFORMER "Vicious Rumors"
INDEX 00 12:16:62
INDEX 01 12:17:67
TRACK 06 AUDIO
TITLE "Worlds And Machines"
PERFORMER "Vicious Rumors"
INDEX 00 18:27:07
INDEX 01 18:28:55
TRACK 07 AUDIO
TITLE "The Crest"
PERFORMER "Vicious Rumors"
INDEX 00 23:56:67
INDEX 01 23:58:12
TRACK 08 AUDIO
TITLE "R.L.H."
PERFORMER "Vicious Rumors"
INDEX 01 26:53:40
TRACK 09 AUDIO
TITLE "Condemned"
PERFORMER "Vicious Rumors"
INDEX 00 30:55:65
INDEX 01 30:56:50
TRACK 10 AUDIO
TITLE "Out Of The Shadows"
PERFORMER "Vicious Rumors"
INDEX 00 34:47:05
INDEX 01 34:48:65


"Лог"
Exact Audio Copy V0.99 prebeta 5 from 4. May 2009

Отчёт EAC об извлечении, выполненном 21. февраля 2010, 0:48

Vicious Rumors / Digital Dictator [MP32-5325]

Дисковод: ASUS DRW-2014S1 Adapter: 0 ID: 0

Режим чтения : Достоверность
Использование точного потока : Да
Отключение кэша аудио : Да
Использование указателей C2 : Нет

Коррекция смещения при чтении : 6
Способность читать области Lead-in и Lead-out : Нет
Заполнение пропущенных сэмплов тишиной : Да
Удаление блоков с тишиной в начале и конце : Нет
При вычислениях CRC использовались нулевые сэмплы : Да
Интерфейс : Установленный внешний ASPI-интерфейс

Выходной формат : Пользовательский кодировщик
Выбранный битрейт : 128 kBit/s
Качество : Высокий
Добавление ID3-тэга : Нет
Утилита сжатия : C:\Program Files\Exact Audio Copy\Flac\flac.exe
Дополнительные параметры : -6 -V -T "artist=%a" -T "title=%t" -T "album=%g" -T "date=%y" -T "tracknumber=%n" -T "genre=%m" -T "comment=EAC 0.99beta5 / FLAC 1.1.0 q6" %s


TOC извлечённого CD

Трек | Старт | Длительность | Начальный сектор | Конечный сектор
---------------------------------------------------------------------
1 | 0:00.37 | 1:03.70 | 37 | 4831
2 | 1:04.32 | 3:16.33 | 4832 | 19564
3 | 4:20.65 | 3:34.22 | 19565 | 35636
4 | 7:55.12 | 4:22.55 | 35637 | 55341
5 | 12:17.67 | 6:10.63 | 55342 | 83154
6 | 18:28.55 | 5:29.32 | 83155 | 107861
7 | 23:58.12 | 2:55.28 | 107862 | 121014
8 | 26:53.40 | 4:03.10 | 121015 | 139249
9 | 30:56.50 | 3:52.15 | 139250 | 156664
10 | 34:48.65 | 4:09.07 | 156665 | 175346


Характеристики диапазона извлечения и сообщения об ошибках

Выбранный диапазон

Имя файла Y:\Музыка\Vicious Rumors\1988 Digital Dictator\Vicious Rumors - Digital Dictator [MP32-5325].wav

Пиковый уровень 100.0 %
Качество диапазона 100.0 %
CRC копии E434D652
Копирование... OK

Ошибок не произошло


AccurateRip: сводка

Трек 1 нет в базе данных
Трек 2 нет в базе данных
Трек 3 нет в базе данных
Трек 4 нет в базе данных
Трек 5 нет в базе данных
Трек 6 нет в базе данных
Трек 7 нет в базе данных
Трек 8 нет в базе данных
Трек 9 нет в базе данных
Трек 10 нет в базе данных

Ни одного трека нет в базе AccurateRip

Конец отчёта


Состав:
Vocals: Carl Albert
Guitars: Geoff Thorpe
Guitars: Mark McGhee
Bass: Dave Starr
Drums: Larry Howe

MP32-5325

_________________
Витасу до Даймонда как Алсу до Руссоса | При переразмещении - спрашивать разрешение!!


Last edited by iezuit on 01 Jul 2010, edited 1 time in total.

Top
 Profile  
 
 
PostPosted: 26 Jun 2010 
А может смените мне статус?..
Joined: 03 Jul 2009
Posts: 671
Lоcаtion: Serbia
Name: Laki
Thanks for this fantastic album !!!!!!


Top
 Profile E-mail  
 
 
PostPosted: 26 Jun 2010 
Персональный статус
Joined: 14 May 2010
Posts: 236
Age: 35
Name: Денис
действительно, фантастик. спасибо!


Top
 Profile  
 
 
PostPosted: 27 Jun 2010 
Пионэръ
Joined: 08 Mar 2010
Posts: 36
Lоcаtion: Россия
Age: 37
Name: Иван
альбом хорош


Top
 Profile E-mail  
 
 
PostPosted: 27 Jun 2010 
А может смените мне статус?..
User avatar
Joined: 24 Dec 2008
Posts: 541
Age: 43
Name: Дмитрий
Спасибо, отличный альбом!


Top
 Profile  
 
 
PostPosted: 16 Oct 2015 
Я набрал 1000 сообщений!
User avatar
Joined: 21 Nov 2009
Posts: 1264
Lоcаtion: praga
Age: 47
Name: Сергей
перезалейте пожалуйста! :esel:


Top
 Profile E-mail  
 
 
PostPosted: 16 Oct 2015 
\m/ 80 см сала \m/
User avatar
Joined: 12 Mar 2012
Posts: 2466
Age: 24
Name: Nick
https://yadi.sk/mail/?hash=z6zhSfTkKx12 ... 1Va8qqU%3D

_________________
1990 AUROPHON BRAINSTORM (Germany) - lossless
1994 MAUSOLEUM CLASSIX (Belgium-Germany) - lossless
1998 VA - GRIM HARVEST - Complete Metal Massacre Volumes I-XII


Top
 Profile E-mail  
 
 
PostPosted: 16 Oct 2015 
Я набрал 1000 сообщений!
User avatar
Joined: 21 Nov 2009
Posts: 1264
Lоcаtion: praga
Age: 47
Name: Сергей
:thanx:


Top
 Profile E-mail  
 
Display posts from previous:  Sort by  
Post new topic Reply to topic  [ 8 posts ] 

All times are UTC + 3 hours


Who is online

Users browsing this forum: No registered users and 1 guest


You cannot post new topics in this forum
You cannot reply to topics in this forum
You cannot edit your posts in this forum
You cannot delete your posts in this forum
You cannot post attachments in this forum

Search for:
Яндекс.Метрика
Powered by phpBB © 2000, 2002, 2005, 2007 phpBB Group