\m/ 80's metal \m/

Информационно-аналитический форум "80 см пыли" (In Search We Trust) "У нас никто никуда не спешит"
Железнодорожная биржа - RailAgent
It is currently 17 Oct 2017

All times are UTC + 3 hours

Spoiler
Chat - temporary registration for foreign users (please leave your application here)







Post new topic Reply to topic  [ 6 posts ] 
Author Message
 
PostPosted: 21 Jun 2010 
ыыыы
User avatar
Joined: 17 May 2009
Posts: 952
Lоcаtion: Пушкино, МО
Age: 39
Name: Дмитрий
Image


Жанр: Heavy Metal
Происхождение исполнителя: США
Год издания: 1990
Год издания данного носителя: 1990
Страна-производитель носителя: Япония
Аудио кодек: FLAC
Тип рипа: image+.cue
Битрейт аудио: lossless
Продолжительность: 39:46
Рип: Собственный
Лейбл: ATLANTIC/MMG
Каталоговый номер: AMCY-34
Матрица: AMCY-34 1M TO (TOSHIBA)

Треклист:
1. Don't Wait for Me 04:16
2. World Church 05:07
3. On the Edge 03:10
4. Ship of Fools 04:30
5. Can You Hear It 03:27
6. Down to the Temple 05:16
7. Hellraiser 04:20
8. Electric Twilight 01:54
9. Thrill of the Hunt 04:02
10. Axe and Smash 03:46

"Куй"
REM GENRE Metal
REM DATE 1990
REM DISCID 7409520A
REM COMMENT "ExactAudioCopy v0.99pb5"
PERFORMER "VICIOUS RUMORS"
TITLE "Vicious Rumors [AMCY-34]"
FILE "VICIOUS RUMORS - Vicious Rumors [AMCY-34].flac" WAVE
TRACK 01 AUDIO
TITLE "Don't Wait For Me"
PERFORMER "VICIOUS RUMORS"
INDEX 01 00:00:00
TRACK 02 AUDIO
TITLE "World Church"
PERFORMER "VICIOUS RUMORS"
INDEX 01 04:15:52
TRACK 03 AUDIO
TITLE "On The Edge"
PERFORMER "VICIOUS RUMORS"
INDEX 01 09:22:57
TRACK 04 AUDIO
TITLE "Ship Of Fools"
PERFORMER "VICIOUS RUMORS"
INDEX 01 12:32:25
TRACK 05 AUDIO
TITLE "Can You Hear It"
PERFORMER "VICIOUS RUMORS"
INDEX 01 17:02:45
TRACK 06 AUDIO
TITLE "Down To The Temple"
PERFORMER "VICIOUS RUMORS"
INDEX 01 20:29:10
TRACK 07 AUDIO
TITLE "Hellraiser"
PERFORMER "VICIOUS RUMORS"
INDEX 01 25:45:22
TRACK 08 AUDIO
TITLE "Electric Twilight"
PERFORMER "VICIOUS RUMORS"
INDEX 01 30:04:72
TRACK 09 AUDIO
TITLE "Thrill Of The Hunt"
PERFORMER "VICIOUS RUMORS"
INDEX 01 31:58:70
TRACK 10 AUDIO
TITLE "Axe And Smash"
PERFORMER "VICIOUS RUMORS"
INDEX 01 36:00:50


"Лог"
Exact Audio Copy V0.99 prebeta 5 from 4. May 2009

Отчёт EAC об извлечении, выполненном 20. февраля 2010, 2:22

VICIOUS RUMORS / Vicious Rumors [AMCY-34]

Дисковод: ASUS DRW-2014S1 Adapter: 0 ID: 0

Режим чтения : Достоверность
Использование точного потока : Да
Отключение кэша аудио : Да
Использование указателей C2 : Нет

Коррекция смещения при чтении : 6
Способность читать области Lead-in и Lead-out : Нет
Заполнение пропущенных сэмплов тишиной : Да
Удаление блоков с тишиной в начале и конце : Нет
При вычислениях CRC использовались нулевые сэмплы : Да
Интерфейс : Установленный внешний ASPI-интерфейс

Выходной формат : Пользовательский кодировщик
Выбранный битрейт : 128 kBit/s
Качество : Высокий
Добавление ID3-тэга : Нет
Утилита сжатия : C:\Program Files\Exact Audio Copy\Flac\flac.exe
Дополнительные параметры : -6 -V -T "artist=%a" -T "title=%t" -T "album=%g" -T "date=%y" -T "tracknumber=%n" -T "genre=%m" -T "comment=EAC 0.99beta5 / FLAC 1.1.0 q6" %s


TOC извлечённого CD

Трек | Старт | Длительность | Начальный сектор | Конечный сектор
---------------------------------------------------------------------
1 | 0:00.00 | 4:15.52 | 0 | 19176
2 | 4:15.52 | 5:07.05 | 19177 | 42206
3 | 9:22.57 | 3:09.43 | 42207 | 56424
4 | 12:32.25 | 4:30.20 | 56425 | 76694
5 | 17:02.45 | 3:26.40 | 76695 | 92184
6 | 20:29.10 | 5:16.12 | 92185 | 115896
7 | 25:45.22 | 4:19.50 | 115897 | 135371
8 | 30:04.72 | 1:53.73 | 135372 | 143919
9 | 31:58.70 | 4:01.55 | 143920 | 162049
10 | 36:00.50 | 3:45.60 | 162050 | 178984


Характеристики диапазона извлечения и сообщения об ошибках

Выбранный диапазон

Имя файла Y:\Музыка\Vicious Rumors\1990 Vicious Rumors\VICIOUS RUMORS - Vicious Rumors [AMCY-34].wav

Пиковый уровень 100.0 %
Качество диапазона 100.0 %
CRC копии 4BDE1225
Копирование... OK

Ошибок не произошло


AccurateRip: сводка

Трек 1 точное извлечение (доверие 1) [E61416A1]
Трек 2 точное извлечение (доверие 1) [24D14DD7]
Трек 3 точное извлечение (доверие 1) [7CFFB817]
Трек 4 точное извлечение (доверие 1) [C02E6E80]
Трек 5 точное извлечение (доверие 1) [9F2E8EC8]
Трек 6 точное извлечение (доверие 1) [69D82430]
Трек 7 точное извлечение (доверие 1) [53E0C2C6]
Трек 8 точное извлечение (доверие 1) [968984E7]
Трек 9 точное извлечение (доверие 1) [675E671B]
Трек 10 точное извлечение (доверие 1) [D6032E1A]

Все треки извлечены точно

Конец отчёта


Состав:
Vocals: Carl Albert
Guitars: Geoff Thorpe
Guitars: Mark McGhee
Bass: Dave Starr
Drums: Larry Howe

AMCY-34

_________________
Витасу до Даймонда как Алсу до Руссоса | При переразмещении - спрашивать разрешение!!


Top
 Profile  
 
 
PostPosted: 21 Jun 2010 
А может смените мне статус?..
User avatar
Joined: 24 Dec 2008
Posts: 547
Age: 43
Name: Дмитрий
Спасибо!


Top
 Profile  
 
 
PostPosted: 21 Jun 2010 
ыыыы
User avatar
Joined: 17 May 2009
Posts: 952
Lоcаtion: Пушкино, МО
Age: 39
Name: Дмитрий
на здоровье!!!

_________________
Витасу до Даймонда как Алсу до Руссоса | При переразмещении - спрашивать разрешение!!


Top
 Profile  
 
 
PostPosted: 21 Jun 2010 
Metal Collector
User avatar
Joined: 16 Nov 2008
Posts: 1179
Lоcаtion: Химки
Age: 34
Name: Андрей
ага! :true:


Top
 Profile E-mail  
 
 
PostPosted: 04 Jul 2010 
труъ антисионист
User avatar
Joined: 01 Aug 2007
Posts: 4529
Lоcаtion: Откуда и большинство из нас
Age: 36
Name: Дядя Вова
Дима, спасибо!

_________________
Image
Image


Top
 Profile  
 
 
PostPosted: 04 Jul 2010 
ыыыы
User avatar
Joined: 17 May 2009
Posts: 952
Lоcаtion: Пушкино, МО
Age: 39
Name: Дмитрий
Glot
:true: :true: :true:

_________________
Витасу до Даймонда как Алсу до Руссоса | При переразмещении - спрашивать разрешение!!


Top
 Profile  
 
Display posts from previous:  Sort by  
Post new topic Reply to topic  [ 6 posts ] 

All times are UTC + 3 hours


Who is online

Users browsing this forum: No registered users and 1 guest


You cannot post new topics in this forum
You cannot reply to topics in this forum
You cannot edit your posts in this forum
You cannot delete your posts in this forum
You cannot post attachments in this forum

Search for:
Яндекс.Метрика
Powered by phpBB © 2000, 2002, 2005, 2007 phpBB Group