\m/ 80's metal \m/

Информационно-аналитический форум "80 см пыли" (In Search We Trust) "У нас никто никуда не спешит"
Железнодорожная биржа - RailAgent
It is currently 23 Aug 2017

All times are UTC + 3 hours

Spoiler
Chat - temporary registration for foreign users (please leave your application here)







Post new topic Reply to topic  [ 6 posts ] 
Author Message
 
PostPosted: 19 Jun 2010 
Студентег
User avatar
Joined: 28 Aug 2007
Posts: 4921
Lоcаtion: г. Москва
Age: 28
Name: Дима
Image

Band: Vice Human
Album: Escape
Label: S.M.C. Records
Genre: Heavy Metal
Country: Greece
Format: Flac + Log + Cue + Covers
Size: 315 Mb

Line-Up:
Nick Papakostas - Vocals/Guitars
Michael Bakoulas - Bass (Convixion, Zero Hour (Grc))
Bill Xirokostas - Drums (Strikelight, Spirits Engaged)


Tracklist:
1. Through The Rain,Through The Wind 02:38
2. Once More 03:30
3. Each Day Comes And Goes 03:04
4. As I Walk Around 03:35
5. Moving Down 05:51
6. Escape 02:59
7. The Gods Will Die 04:16
8. I've Got Love 03:47
9. I'm Gonna Let You Go 03:25
10. Sing The Song 03:10
Total playing time 36:17

:cry:
Spectrum
:umnik:
Image


:umnik:
LOG
Exact Audio Copy V0.99 prebeta 5 from 4. May 2009

EAC extraction logfile from 17. June 2010, 16:21

Vice Human / Escape

Used drive : PIONEER DVD-RW DVR-116D Adapter: 0 ID: 0

Read mode : Secure
Utilize accurate stream : Yes
Defeat audio cache : Yes
Make use of C2 pointers : No

Read offset correction : 96
Overread into Lead-In and Lead-Out : No
Fill up missing offset samples with silence : Yes
Delete leading and trailing silent blocks : No
Null samples used in CRC calculations : Yes
Used interface : Native Win32 interface for Win NT & 2000

Used output format : User Defined Encoder
Selected bitrate : 32 kBit/s
Quality : High
Add ID3 tag : No
Command line compressor : C:\Program Files\Exact Audio Copy\Flac\flac.exe
Additional command line options : -6 -V %s


TOC of the extracted CD

Track | Start | Length | Start sector | End sector
---------------------------------------------------------
1 | 0:00.00 | 2:38.67 | 0 | 11916
2 | 2:38.67 | 3:29.69 | 11917 | 27660
3 | 6:08.61 | 3:03.16 | 27661 | 41401
4 | 9:12.02 | 3:35.58 | 41402 | 57584
5 | 12:47.60 | 5:50.73 | 57585 | 83907
6 | 18:38.58 | 2:58.62 | 83908 | 97319
7 | 21:37.45 | 4:15.69 | 97320 | 116513
8 | 25:53.39 | 3:46.46 | 116514 | 133509
9 | 29:40.10 | 3:25.57 | 133510 | 148941
10 | 33:05.67 | 3:09.32 | 148942 | 163148


Range status and errors

Selected range

Filename D:\Музыка\Lossless\Vice Human - Escape (2006)\Vice Human - Escape.wav

Suspicious position 0:31:05
Suspicious position 0:31:15
Suspicious position 0:36:02
Suspicious position 0:36:04
Suspicious position 0:36:11

Peak level 100.0 %
Range quality 99.1 %
Copy CRC 237197FB
Copy finished

There were errors


AccurateRip summary

Track 1 not present in database
Track 2 not present in database
Track 3 not present in database
Track 4 not present in database
Track 5 not present in database
Track 6 not present in database
Track 7 not present in database
Track 8 not present in database
Track 9 not present in database
Track 10 not present in database

None of the tracks are present in the AccurateRip database

End of status report


CUE
REM GENRE "Heavy Metal"
REM DATE 2006
REM DISCID 8B087F0A
REM COMMENT "ExactAudioCopy v0.99pb5"
PERFORMER "Vice Human"
TITLE "Escape"
FILE "Vice Human - Escape.flac" WAVE
TRACK 01 AUDIO
TITLE "Through The Rain, Through The Wind"
PERFORMER "Vice Human"
INDEX 01 00:00:00
TRACK 02 AUDIO
TITLE "Once More"
PERFORMER "Vice Human"
INDEX 00 02:36:67
INDEX 01 02:38:67
TRACK 03 AUDIO
TITLE "Each Day Comes And Goes"
PERFORMER "Vice Human"
INDEX 00 06:06:61
INDEX 01 06:08:61
TRACK 04 AUDIO
TITLE "As I Walk Around"
PERFORMER "Vice Human"
INDEX 00 09:10:02
INDEX 01 09:12:02
TRACK 05 AUDIO
TITLE "Moving Down"
PERFORMER "Vice Human"
INDEX 00 12:45:60
INDEX 01 12:47:60
TRACK 06 AUDIO
TITLE "Escape"
PERFORMER "Vice Human"
INDEX 00 18:36:58
INDEX 01 18:38:58
TRACK 07 AUDIO
TITLE "The Gods Will Die"
PERFORMER "Vice Human"
INDEX 00 21:35:45
INDEX 01 21:37:45
TRACK 08 AUDIO
TITLE "I've Got Love"
PERFORMER "Vice Human"
INDEX 00 25:51:39
INDEX 01 25:53:39
TRACK 09 AUDIO
TITLE "I'm Gonna Let You Go"
PERFORMER "Vice Human"
INDEX 00 29:38:10
INDEX 01 29:40:10
TRACK 10 AUDIO
TITLE "Sing The Song"
PERFORMER "Vice Human"
INDEX 00 33:03:67
INDEX 01 33:05:67


Narod.Ru


Top
 Profile E-mail  
 
 
PostPosted: 19 Jun 2010 
Прокъмитолист
User avatar
Joined: 12 Aug 2007
Posts: 6100
Lоcаtion: Санктъ-Петербуркъ
Age: 49
Name: Олекъ
ага, и этого забираем. спасибо, Дим! :thanx: :drink:

_________________
прокъметол - это музыко, от которово есть прок (ы)


Top
 Profile  
 
 
PostPosted: 25 Nov 2011 
Power Metal Maniac
User avatar
Joined: 09 Aug 2008
Posts: 5555
Lоcаtion: Москва
Age: 39
Name: Егор
reup, плиз :oops:

_________________
Long Live Metal!


Top
 Profile  
 
 
PostPosted: 27 Nov 2011 
Хиппей (support team)
User avatar
Joined: 30 Jul 2007
Posts: 92430
Lоcаtion: Киев (Kyiv, UA)
Age: 44
Name: Andrey
Да шо ж за йо...
Неужто трудно было продлить срок хранение файла? :vic:

Хотя, Димке легче перезалить, насколько я помню :dance:

_________________


Top
 Profile E-mail  
 
 
PostPosted: 27 Nov 2011 
Студентег
User avatar
Joined: 28 Aug 2007
Posts: 4921
Lоcаtion: г. Москва
Age: 28
Name: Дима
Новая ссылка в первом посте.


Top
 Profile E-mail  
 
 
PostPosted: 27 Nov 2011 
Power Metal Maniac
User avatar
Joined: 09 Aug 2008
Posts: 5555
Lоcаtion: Москва
Age: 39
Name: Егор
:thanx:

_________________
Long Live Metal!


Top
 Profile  
 
Display posts from previous:  Sort by  
Post new topic Reply to topic  [ 6 posts ] 

All times are UTC + 3 hours


Who is online

Users browsing this forum: No registered users and 1 guest


You cannot post new topics in this forum
You cannot reply to topics in this forum
You cannot edit your posts in this forum
You cannot delete your posts in this forum
You cannot post attachments in this forum

Search for:
Яндекс.Метрика
Powered by phpBB © 2000, 2002, 2005, 2007 phpBB Group