\m/ 80's metal \m/

Информационно-аналитический форум "80 см пыли" (In Search We Trust) "У нас никто никуда не спешит"
Железнодорожная биржа - RailAgent
It is currently 11 Dec 2017

All times are UTC + 3 hours

Spoiler
Chat - temporary registration for foreign users (please leave your application here)







Post new topic Reply to topic  [ 5 posts ] 
Author Message
 
PostPosted: 12 Jun 2010 
ыыыы
User avatar
Joined: 17 May 2009
Posts: 952
Lоcаtion: Пушкино, МО
Age: 39
Name: Дмитрий
Image


Жанр: Heavy Metal
Происхождение исполнителя: США
Год издания: 1991
Год издания данного носителя: 1991
Страна-производитель носителя: Япония
Аудио кодек: FLAC
Тип рипа: image+.cue
Битрейт аудио: lossless
Продолжительность: 41:52
Рип: Собственный
Лейбл: ATLANTIC/MMG
Каталоговый номер: AMCY-272
Матрица: AMCY-272 (SONY)

Треклист:
1. Abandoned 04:16
2. You Only Live Twice 03:38
3. Savior From Anger 04:08
4. Children 04:56
5. Dust to Dust 04:20
6. Raise Your Hands 04:02
7. Strange Behavior 04:08
8. Six Stepsisters 03:31
9. Mastermind 03:55
10. When Love Comes Down 04:59
11. Ends of the Earth 03:12

"Куй"
REM GENRE Metal
REM DATE 1991
REM DISCID 900A900B
REM COMMENT "ExactAudioCopy v0.95b4"
PERFORMER "VICIOUS RUMORS"
TITLE "Welcome To The Ball [AMCY-272]"
FILE "VICIOUS RUMORS - Welcome To The Ball [AMCY-272].flac" WAVE
TRACK 01 AUDIO
TITLE "Abandoned"
PERFORMER "VICIOUS RUMORS"
INDEX 01 00:00:00
TRACK 02 AUDIO
TITLE "You Only Live Twice"
PERFORMER "VICIOUS RUMORS"
INDEX 01 04:15:50
TRACK 03 AUDIO
TITLE "Savior From Anger"
PERFORMER "VICIOUS RUMORS"
INDEX 01 07:53:25
TRACK 04 AUDIO
TITLE "Children"
PERFORMER "VICIOUS RUMORS"
INDEX 01 12:01:27
TRACK 05 AUDIO
TITLE "Dust To Dust"
PERFORMER "VICIOUS RUMORS"
INDEX 01 16:57:17
TRACK 06 AUDIO
TITLE "Raise Your Hands"
PERFORMER "VICIOUS RUMORS"
INDEX 01 21:17:07
TRACK 07 AUDIO
TITLE "Strange Behaviour"
PERFORMER "VICIOUS RUMORS"
INDEX 01 25:19:35
TRACK 08 AUDIO
TITLE "Six Stepsisters"
PERFORMER "VICIOUS RUMORS"
INDEX 00 29:25:70
INDEX 01 29:27:00
TRACK 09 AUDIO
TITLE "Mastermind"
PERFORMER "VICIOUS RUMORS"
INDEX 01 32:58:02
TRACK 10 AUDIO
TITLE "When Love Comes Down"
PERFORMER "VICIOUS RUMORS"
INDEX 01 36:52:72
TRACK 11 AUDIO
TITLE "Ends Of The Earth"
PERFORMER "VICIOUS RUMORS"
INDEX 00 41:50:20
INDEX 01 41:51:50


"Лог"
EAC extraction logfile from 14. November 2009, 20:19 for CD
VICIOUS RUMORS / Welcome To The Ball [AMCY-272]

Used drive : ASUS DRW-2014S1 Adapter: 0 ID: 0
Read mode : Secure with NO C2, accurate stream, disable cache
Read offset correction : 6
Overread into Lead-In and Lead-Out : No

Used output format : Internal WAV Routines
44.100 Hz; 16 Bit; Stereo

Other options :
Fill up missing offset samples with silence : Yes
Delete leading and trailing silent blocks : No
Installed external ASPI interface


Range status and errors
Selected range
Filename Y:\Музыка\Vicious Rumors\1991 Welcome To The Ball\VICIOUS RUMORS - Welcome To The Ball [AMCY-272].wav

Peak level 100.0 %
Range quality 100.0 %
CRC 39CCC379
Copy OK

No errors occured

End of status report


Состав:
Vocals : Carl Albert
Guitars : Geoff Thorpe
Guitars : Mark McGhee
Bass : Dave Starr
Drums : Larry Howe

######
В куе поменяйте wav на flac

AMCY-272

_________________
Витасу до Даймонда как Алсу до Руссоса | При переразмещении - спрашивать разрешение!!


Top
 Profile  
 
 
PostPosted: 13 Jun 2010 
Metal Collector
User avatar
Joined: 16 Nov 2008
Posts: 1189
Lоcаtion: Химки
Age: 34
Name: Андрей
:thanx:


Top
 Profile E-mail  
 
 
PostPosted: 14 Jun 2010 
труъ антисионист
User avatar
Joined: 01 Aug 2007
Posts: 4529
Lоcаtion: Откуда и большинство из нас
Age: 37
Name: Дядя Вова
Спасибо Димон! :losik:

_________________
Image
Image


Top
 Profile  
 
 
PostPosted: 14 Jun 2010 
А может смените мне статус?..
User avatar
Joined: 24 Dec 2008
Posts: 556
Age: 43
Name: Дмитрий
Благодарю.


Top
 Profile  
 
 
PostPosted: 19 Jun 2011 
metallpaparazzy
User avatar
Joined: 20 Dec 2009
Posts: 674
Lоcаtion: Днепропетровск
Age: 42
Name: Геннадий
взял себе сегодня американский первопресс. классный альбом! :true:


Top
 Profile E-mail  
 
Display posts from previous:  Sort by  
Post new topic Reply to topic  [ 5 posts ] 

All times are UTC + 3 hours


Who is online

Users browsing this forum: No registered users and 3 guests


You cannot post new topics in this forum
You cannot reply to topics in this forum
You cannot edit your posts in this forum
You cannot delete your posts in this forum
You cannot post attachments in this forum

Search for:
Яндекс.Метрика
cron
Powered by phpBB © 2000, 2002, 2005, 2007 phpBB Group