\m/ 80's metal \m/

Информационно-аналитический форум "80 см пыли" (In Search We Trust) "У нас никто никуда не спешит"
Железнодорожная биржа - RailAgent
It is currently 23 Nov 2017

All times are UTC + 3 hours

Spoiler
Chat - temporary registration for foreign users (please leave your application here)







Post new topic Reply to topic  [ 6 posts ] 
Author Message
 
PostPosted: 11 Jun 2010 
ыыыы
User avatar
Joined: 17 May 2009
Posts: 952
Lоcаtion: Пушкино, МО
Age: 39
Name: Дмитрий
Image


Жанр: Heavy Metal
Происхождение исполнителя: США
Год издания: 1994
Год издания данного носителя: 1994
Страна-производитель носителя: Япония
Аудио кодек: FLAC
Тип рипа: image+.cue
Битрейт аудио: lossless
Продолжительность: 56:31
Рип: Собственный
Лейбл: BRUNETTE/ALFA
Каталоговый номер: ALCB-3006
Матрица: ALCB-3006-U 2 (SONY)

Треклист:
1. Against the Grain 04:21
2. All Rights Reserved 04:41
3. The Voice 04:13
4. Thinking of You 04:57
5. Thunder & Rain (Part 1) 03:16
6. Thunder & Rain (Part 2) 03:05
7. No Fate 04:26
8. Sense of Security 04:30
9. Dreaming 04:14
10. Building # 6 04:01
11. Ministry of Fear 04:23
12. Music Box 02:09
13. Hellraiser (Live) 04:31
14. The Crest (Live) 03:43

"Куй"
REM GENRE Metal
REM DATE 1994
REM DISCID CF0D3E0E
REM COMMENT "ExactAudioCopy v0.99pb5"
PERFORMER "Vicious Rumors"
TITLE "Word of Mouth [ALCB-3006]"
FILE "Vicious Rumors - Word of Mouth [ALCB-3006].flac" WAVE
TRACK 01 AUDIO
TITLE "Against the Grain"
PERFORMER "Vicious Rumors"
INDEX 01 00:00:00
TRACK 02 AUDIO
TITLE "All Rights Reserved"
PERFORMER "Vicious Rumors"
INDEX 01 04:21:27
TRACK 03 AUDIO
TITLE "The Voice"
PERFORMER "Vicious Rumors"
INDEX 01 09:02:62
TRACK 04 AUDIO
TITLE "Thinking of You"
PERFORMER "Vicious Rumors"
INDEX 00 13:14:27
INDEX 01 13:15:67
TRACK 05 AUDIO
TITLE "Thunder and Rain-Pt. 1"
PERFORMER "Vicious Rumors"
INDEX 01 18:12:32
TRACK 06 AUDIO
TITLE "Thunder and Rain-Pt. 2"
PERFORMER "Vicious Rumors"
INDEX 01 21:28:20
TRACK 07 AUDIO
TITLE "No Fate"
PERFORMER "Vicious Rumors"
INDEX 01 24:33:40
TRACK 08 AUDIO
TITLE "Sense of Security"
PERFORMER "Vicious Rumors"
INDEX 01 28:59:07
TRACK 09 AUDIO
TITLE "Dreaming"
PERFORMER "Vicious Rumors"
INDEX 00 33:28:25
INDEX 01 33:29:32
TRACK 10 AUDIO
TITLE "Building #6"
PERFORMER "Vicious Rumors"
INDEX 00 37:40:52
INDEX 01 37:43:52
TRACK 11 AUDIO
TITLE "Ministry of Fear"
PERFORMER "Vicious Rumors"
INDEX 00 41:43:52
INDEX 01 41:44:60
TRACK 12 AUDIO
TITLE "Music Box"
PERFORMER "Vicious Rumors"
INDEX 01 46:07:35
TRACK 13 AUDIO
TITLE "Hellraiser (Live)"
PERFORMER "Vicious Rumors"
INDEX 00 48:02:15
INDEX 01 48:16:27
TRACK 14 AUDIO
TITLE "The Crest (Live)"
PERFORMER "Vicious Rumors"
INDEX 01 52:47:30


"Лог"
Exact Audio Copy V0.99 prebeta 5 from 4. May 2009

Отчёт EAC об извлечении, выполненном 11. июня 2010, 19:19

Vicious Rumors / Word of Mouth [ALCB-3006]

Дисковод: MATSHITADVD-RAM UJ-850S Adapter: 0 ID: 0

Режим чтения : Достоверность
Использование точного потока : Да
Отключение кэша аудио : Да
Использование указателей C2 : Нет

Коррекция смещения при чтении : 102
Способность читать области Lead-in и Lead-out : Нет
Заполнение пропущенных сэмплов тишиной : Да
Удаление блоков с тишиной в начале и конце : Нет
При вычислениях CRC использовались нулевые сэмплы : Да
Интерфейс : Установленный внешний ASPI-интерфейс

Выходной формат : Пользовательский кодировщик
Выбранный битрейт : 128 kBit/s
Качество : Высокий
Добавление ID3-тэга : Нет
Утилита сжатия : C:\Program Files\Exact Audio Copy\Flac\flac.exe
Дополнительные параметры : -6 -V -T "artist=%a" -T "title=%t" -T "album=%g" -T "date=%y" -T "tracknumber=%n" -T "genre=%m" -T "comment=EAC 0.99beta5 / FLAC 1.1.0 q6" %s


TOC извлечённого CD

Трек | Старт | Длительность | Начальный сектор | Конечный сектор
---------------------------------------------------------------------
1 | 0:00.00 | 4:21.27 | 0 | 19601
2 | 4:21.27 | 4:41.35 | 19602 | 40711
3 | 9:02.62 | 4:13.05 | 40712 | 59691
4 | 13:15.67 | 4:56.40 | 59692 | 81931
5 | 18:12.32 | 3:15.63 | 81932 | 96619
6 | 21:28.20 | 3:05.20 | 96620 | 110514
7 | 24:33.40 | 4:25.42 | 110515 | 130431
8 | 28:59.07 | 4:30.25 | 130432 | 150706
9 | 33:29.32 | 4:14.20 | 150707 | 169776
10 | 37:43.52 | 4:01.08 | 169777 | 187859
11 | 41:44.60 | 4:22.50 | 187860 | 207559
12 | 46:07.35 | 2:08.67 | 207560 | 217226
13 | 48:16.27 | 4:31.03 | 217227 | 237554
14 | 52:47.30 | 3:43.37 | 237555 | 254316


Характеристики диапазона извлечения и сообщения об ошибках

Выбранный диапазон

Имя файла Y:\Музыка\Vicious Rumors\1994 Word of Mouth\Vicious Rumors - Word of Mouth [ALCB-3006].wav

Пиковый уровень 100.0 %
Качество диапазона 100.0 %
CRC копии 61D5AB9B
Копирование... OK

Ошибок не произошло


AccurateRip: сводка

Трек 1 точное извлечение (доверие 1) [992007B9]
Трек 2 точное извлечение (доверие 1) [0C6979E4]
Трек 3 точное извлечение (доверие 1) [530A8785]
Трек 4 точное извлечение (доверие 1) [7B67F84F]
Трек 5 точное извлечение (доверие 1) [D160CA9C]
Трек 6 точное извлечение (доверие 1) [11B575D9]
Трек 7 точное извлечение (доверие 1) [8145BCB9]
Трек 8 точное извлечение (доверие 1) [D3FC16A3]
Трек 9 точное извлечение (доверие 1) [5C138A79]
Трек 10 точное извлечение (доверие 1) [8EDF7F82]
Трек 11 точное извлечение (доверие 1) [C605A6E0]
Трек 12 точное извлечение (доверие 1) [02F3C9E5]
Трек 13 точное извлечение (доверие 1) [73112BD9]
Трек 14 точное извлечение (доверие 1) [27F3C7A1]

Все треки извлечены точно

Конец отчёта


Состав:
Carl Albert: Vocals
Geoff Thorpe: Guitars
Mark McGhee: Guitars
Tommy Sisco: Bass
Larry Howe: Drums

ALCB-3006

_________________
Витасу до Даймонда как Алсу до Руссоса | При переразмещении - спрашивать разрешение!!


Top
 Profile  
 
 
PostPosted: 12 Jun 2010 
Прокъмитолист
User avatar
Joined: 12 Aug 2007
Posts: 6229
Lоcаtion: Санктъ-Петербуркъ
Age: 50
Name: Олекъ
а вот такого лосика надо бы забрать. огромное спасибо, Дим! :thanx: :true:

_________________
прокъметол - это музыко, от которово есть прок (ы)


Top
 Profile  
 
 
PostPosted: 12 Jun 2010 
Metal Collector
User avatar
Joined: 16 Nov 2008
Posts: 1183
Lоcаtion: Химки
Age: 34
Name: Андрей
:true:


Top
 Profile E-mail  
 
 
PostPosted: 12 Jun 2010 
ыыыы
User avatar
Joined: 17 May 2009
Posts: 952
Lоcаtion: Пушкино, МО
Age: 39
Name: Дмитрий
spiralarch wrote:
а вот такого лосика надо бы забрать. огромное спасибо, Дим! :thanx: :true:

...это вы там в ракете не ещё видели! (с)

_________________
Витасу до Даймонда как Алсу до Руссоса | При переразмещении - спрашивать разрешение!!


Last edited by iezuit on 12 Jun 2010, edited 1 time in total.

Top
 Profile  
 
 
PostPosted: 12 Jun 2010 
Хиппей (support team)
User avatar
Joined: 30 Jul 2007
Posts: 95878
Lоcаtion: Киев (Kyiv, UA)
Age: 44
Name: Andrey
Дима, спасибо! :true:

_________________


Top
 Profile E-mail  
 
 
PostPosted: 14 Jun 2010 
А может смените мне статус?..
User avatar
Joined: 24 Dec 2008
Posts: 554
Age: 43
Name: Дмитрий
Спасибо.


Top
 Profile  
 
Display posts from previous:  Sort by  
Post new topic Reply to topic  [ 6 posts ] 

All times are UTC + 3 hours


Who is online

Users browsing this forum: No registered users and 1 guest


You cannot post new topics in this forum
You cannot reply to topics in this forum
You cannot edit your posts in this forum
You cannot delete your posts in this forum
You cannot post attachments in this forum

Search for:
Яндекс.Метрика
Powered by phpBB © 2000, 2002, 2005, 2007 phpBB Group