\m/ 80's metal \m/

Информационно-аналитический форум "80 см пыли" (In Search We Trust) "У нас никто никуда не спешит"
Железнодорожная биржа - RailAgent
It is currently 20 Aug 2017

All times are UTC + 3 hours

Spoiler
Chat - temporary registration for foreign users (please leave your application here)







Post new topic Reply to topic  [ 5 posts ] 
Author Message
 
PostPosted: 29 May 2010 
Студентег
User avatar
Joined: 28 Aug 2007
Posts: 4902
Lоcаtion: г. Москва
Age: 28
Name: Дима
Image

Band: Vice Human
Album: Set Me Free
Label: S.M.C. Records
Genre: Heavy Metal
Country: Greece
Format: Flac + Log + Cue
Size: 220 Mb

Line-Up:
Nick Papakostas - Vocals/Guitars
Jonh Satos - Drums
Kostas Manopoulos - Bass Guitar (Obduktion)


Tracklist:
1. Set me free 03:38
2. Rock dreamer 02:57
3. Wind 02:54
4. Express to high 03:33
5. Born for rock 03:14
6. Pay my pride 03:31
7. I still remember 03:09
8. Living the world 03:49
9. Night hunter 04:00
Total playing time 30:45

Spectrum
Image


LOG
Exact Audio Copy V0.99 prebeta 5 from 4. May 2009

EAC extraction logfile from 28. May 2010, 22:14

Vice Human / Set Me Free

Used drive : PIONEER DVD-RW DVR-116D Adapter: 0 ID: 0

Read mode : Secure
Utilize accurate stream : Yes
Defeat audio cache : Yes
Make use of C2 pointers : No

Read offset correction : 96
Overread into Lead-In and Lead-Out : No
Fill up missing offset samples with silence : Yes
Delete leading and trailing silent blocks : No
Null samples used in CRC calculations : Yes
Used interface : Native Win32 interface for Win NT & 2000

Used output format : User Defined Encoder
Selected bitrate : 32 kBit/s
Quality : High
Add ID3 tag : No
Command line compressor : C:\Program Files\Exact Audio Copy\Flac\flac.exe
Additional command line options : -6 -V %s


TOC of the extracted CD

Track | Start | Length | Start sector | End sector
---------------------------------------------------------
1 | 0:00.00 | 3:38.12 | 0 | 16361
2 | 3:38.12 | 2:57.62 | 16362 | 29698
3 | 6:35.74 | 2:54.42 | 29699 | 42790
4 | 9:30.41 | 3:33.00 | 42791 | 58765
5 | 13:03.41 | 3:14.11 | 58766 | 73326
6 | 16:17.52 | 3:31.12 | 73327 | 89163
7 | 19:48.64 | 3:09.44 | 89164 | 103382
8 | 22:58.33 | 3:49.16 | 103383 | 120573
9 | 26:47.49 | 4:00.21 | 120574 | 138594


Range status and errors

Selected range

Filename D:\Музыка\Lossless\Vice Human - Set Me Free (2003)\Vice Human - Set Me Free.wav

Peak level 100.0 %
Range quality 99.9 %
Copy CRC B7538168
Copy OK

No errors occurred


AccurateRip summary

Track 1 not present in database
Track 2 not present in database
Track 3 not present in database
Track 4 not present in database
Track 5 not present in database
Track 6 not present in database
Track 7 not present in database
Track 8 not present in database
Track 9 not present in database

None of the tracks are present in the AccurateRip database

End of status report


CUE
REM GENRE "Heavy Metal"
REM DATE 2003
REM DISCID 7B073709
REM COMMENT "ExactAudioCopy v0.99pb5"
PERFORMER "Vice Human"
TITLE "Set Me Free"
FILE "Vice Human - Set Me Free.flac" WAVE
TRACK 01 AUDIO
TITLE "Set Me Free"
PERFORMER "Vice Human"
INDEX 01 00:00:00
TRACK 02 AUDIO
TITLE "Rock Dreamer"
PERFORMER "Vice Human"
INDEX 01 03:38:12
TRACK 03 AUDIO
TITLE "Wind"
PERFORMER "Vice Human"
INDEX 01 06:35:74
TRACK 04 AUDIO
TITLE "Express To High"
PERFORMER "Vice Human"
INDEX 01 09:30:41
TRACK 05 AUDIO
TITLE "Born For Rock"
PERFORMER "Vice Human"
INDEX 01 13:03:41
TRACK 06 AUDIO
TITLE "Pay My Pride"
PERFORMER "Vice Human"
INDEX 01 16:17:52
TRACK 07 AUDIO
TITLE "I Still Remember"
PERFORMER "Vice Human"
INDEX 01 19:48:64
TRACK 08 AUDIO
TITLE "Living The World"
PERFORMER "Vice Human"
INDEX 01 22:58:33
TRACK 09 AUDIO
TITLE "Night Hunter"
PERFORMER "Vice Human"
INDEX 01 26:47:49


Narod.ru

Картинки будут завтра.На М-А состав участников на этом альбоме указан неправильно, может у кого-нибудь достаточно прав чтобы поправить?
Обратите внимание на спектр, срез где-то на 18 кГц :umnik:
Если интересно, то могу 2006 выложить ещё.Если кому мп3 320 нужно, то говорите.


Top
 Profile E-mail  
 
 
PostPosted: 29 May 2010 
Прокъмитолист
User avatar
Joined: 12 Aug 2007
Posts: 6096
Lоcаtion: Санктъ-Петербуркъ
Age: 49
Name: Олекъ
заберу, пожалуй. спасибо, Дим! :thanx:

_________________
прокъметол - это музыко, от которово есть прок (ы)


Top
 Profile  
 
 
PostPosted: 05 Jun 2010 
Студентег
User avatar
Joined: 28 Aug 2007
Posts: 4902
Lоcаtion: г. Москва
Age: 28
Name: Дима
Vice Human - Set Me Free (Covers)


Top
 Profile E-mail  
 
 
PostPosted: 11 Jun 2010 
Почётный металлург
User avatar
Joined: 15 Sep 2007
Posts: 4347
Lоcаtion: Хабаровск
Age: 57
Name: чуть выше
Спасибо, Дима! А 2006 в лосиную не выложешь?
А другие у тебя есть? 80-х годов.

_________________
Коль будешь людей ты ослами честить,
тебе человеком меж них не прослыть!
(Саади, персидский поэт, 13в.)


Top
 Profile  
 
 
PostPosted: 11 Jun 2010 
Студентег
User avatar
Joined: 28 Aug 2007
Posts: 4902
Lоcаtion: г. Москва
Age: 28
Name: Дима
2006 выложу,только там спектр вообще на 16 кГц обрезан.
Первые альбомы вроде как на дисках официально не выходили.Продаётся только бутлежное переиздание от Unisound, но мне чего-то пока не хочется покупать за 18 долларов.


Top
 Profile E-mail  
 
Display posts from previous:  Sort by  
Post new topic Reply to topic  [ 5 posts ] 

All times are UTC + 3 hours


Who is online

Users browsing this forum: No registered users and 2 guests


You cannot post new topics in this forum
You cannot reply to topics in this forum
You cannot edit your posts in this forum
You cannot delete your posts in this forum
You cannot post attachments in this forum

Search for:
Яндекс.Метрика
Powered by phpBB © 2000, 2002, 2005, 2007 phpBB Group